<?xml version="1.0" standalone="no"?>
<!DOCTYPE svg PUBLIC "-//W3C//DTD SVG 1.1//EN" "http://www.w3.org/Graphics/SVG/1.1/DTD/svg11.dtd" >
<svg xmlns="http://www.w3.org/2000/svg">
<metadata></metadata>
<defs>
<font id="century_gothicregular" horiz-adv-x="1135" >
<font-face units-per-em="2048" ascent="1638" descent="-410" />
<missing-glyph horiz-adv-x="567" />
<glyph horiz-adv-x="2048" />
<glyph horiz-adv-x="2048" />
<glyph unicode="&#xd;" horiz-adv-x="567" />
<glyph unicode=" "  horiz-adv-x="567" />
<glyph unicode="&#x09;" horiz-adv-x="567" />
<glyph unicode="&#xa0;" horiz-adv-x="567" />
<glyph unicode="!" horiz-adv-x="604" d="M179 96q0 52 36 88t87 36t87 -36t36 -88q0 -51 -36 -87.5t-87 -36.5t-87 36.5t-36 87.5zM228 368v1140h145v-1140h-145z" />
<glyph unicode="&#x22;" horiz-adv-x="633" d="M48 1508h148l-22 -463h-104zM437 1508h148l-23 -463h-103z" />
<glyph unicode="#" horiz-adv-x="1475" d="M184 494v108h263l51 334h-253v109h269l70 468h107l-68 -468h332l68 468h112l-69 -468h224v-109h-240l-48 -334h231v-108h-248l-72 -494h-112l72 494h-333l-76 -494h-110l76 494h-246zM557 602h332l51 334h-334z" />
<glyph unicode="$" d="M72 226l107 81q139 -184 352 -205v619q-157 77 -199 105q-85 58 -126 129t-41 164q0 90 45 167t122.5 125t198.5 60v103h131v-109q98 -18 167.5 -64t133.5 -136l-108 -87q-77 119 -193 144v-499q262 -138 326 -224q82 -110 82 -243q0 -110 -60.5 -201.5t-163.5 -142.5 q-67 -33 -184 -48v-313h-131v313q-123 10 -197 39t-144.5 87.5t-117.5 135.5zM311 1122q0 -72 42 -122q56 -68 178 -123v455q-75 -6 -121 -33.5t-72.5 -74t-26.5 -102.5zM662 106q121 17 193.5 88t72.5 159q0 86 -55.5 159t-210.5 156v-562z" />
<glyph unicode="%" horiz-adv-x="1587" d="M46 1159q0 96 45 174.5t128 126.5t170 48q37 0 122 -18q130 -28 282 -28q112 0 211.5 14.5t258.5 59.5h118l-1072 -1638h-132l975 1492q-173 -42 -422 -42l-54 1q62 -86 62 -182q0 -137 -95.5 -245t-253.5 -108q-145 0 -244 100.5t-99 244.5zM173 1161q0 -91 64 -155 t155 -64t155.5 64t64.5 155t-64.5 155.5t-155.5 64.5t-155 -64.5t-64 -155.5zM849 303q0 143 101.5 244.5t244.5 101.5t244.5 -101.5t101.5 -244.5t-101.5 -244.5t-244.5 -101.5t-244.5 101.5t-101.5 244.5zM976 303q0 -91 64 -155t155 -64t155.5 64t64.5 155t-64.5 155 t-155.5 64t-155 -64t-64 -155z" />
<glyph unicode="&#x26;" horiz-adv-x="1550" d="M179 304q0 110 69.5 220.5t283.5 279.5q-121 146 -155.5 215.5t-34.5 132.5q0 110 85 182q98 84 244 84q92 0 168 -37t116 -99.5t40 -132.5q0 -74 -52 -157.5t-205 -213.5l223 -234l153 -153q110 92 178 153l100 -106q-96 -85 -173 -147q51 -54 147 -151q76 -76 131 -140 h-205l-189 197q-190 -144 -305 -189t-243 -45q-170 0 -273 97.5t-103 243.5zM326 314q0 -84 71 -148.5t174 -64.5q78 0 153 32q118 51 279 166l-240 246q-60 63 -134 148q-187 -141 -245 -224.5t-58 -154.5zM489 1149q0 -40 20 -75q49 -85 138 -186q107 83 161 163 q38 57 38 101q0 51 -49.5 88t-131.5 37q-78 0 -127 -38t-49 -90z" />
<glyph unicode="'" horiz-adv-x="405" d="M129 1508h148l-23 -463h-103z" />
<glyph unicode="(" horiz-adv-x="756" d="M267 495q0 281 52 547.5t151 493.5h162q-98 -201 -157 -469t-59 -553q0 -264 44.5 -509t122.5 -431h-154q-74 178 -118 419t-44 502z" />
<glyph unicode=")" horiz-adv-x="756" d="M124 -426q99 201 157.5 469t58.5 553q0 264 -44.5 509t-122.5 431h154q75 -178 118.5 -419.5t43.5 -502.5q0 -280 -52 -546.5t-151 -493.5h-162z" />
<glyph unicode="*" horiz-adv-x="870" d="M88 1027l281 123l-281 125l66 112l246 -176l-31 297h130l-29 -297l246 176l66 -112l-277 -125l277 -123l-66 -113l-246 174l29 -297h-130l31 297l-246 -174z" />
<glyph unicode="+" horiz-adv-x="1241" d="M115 667v137h437v434h137v-434h438v-137h-438v-434h-137v434h-437z" />
<glyph unicode="," horiz-adv-x="567" d="M128 -130l167 400l135 -64l-203 -378z" />
<glyph unicode="-" horiz-adv-x="680" d="M65 492v122h550v-122h-550z" />
<glyph unicode="." horiz-adv-x="567" d="M187 96q0 52 36 88t87 36t87 -36t36 -88q0 -51 -36 -87.5t-87 -36.5t-87 36.5t-36 87.5z" />
<glyph unicode="/" horiz-adv-x="895" d="M72 -200l610 1708h154l-611 -1708h-153z" />
<glyph unicode="0" d="M65 735q0 291 62.5 450t176.5 241t255 82q143 0 259 -82.5t183.5 -247.5t67.5 -443q0 -277 -66.5 -441t-183.5 -247.5t-260 -83.5q-141 0 -254 81t-176.5 241.5t-63.5 449.5zM204 732q0 -249 44.5 -376.5t131.5 -193.5t184 -66q98 0 183 64.5t129 193.5q55 157 55 378 q0 222 -49 363.5t-135.5 207t-182.5 65.5q-98 0 -184 -65.5t-131 -193t-45 -377.5z" />
<glyph unicode="1" d="M291 1327l88 144h289v-1471h-146v1327h-231z" />
<glyph unicode="2" d="M61 0l562 607q171 183 222.5 271.5t51.5 186.5q0 124 -92.5 213.5t-226.5 89.5q-141 0 -234.5 -94t-106.5 -264h-141q6 218 145.5 358t344.5 140q203 0 328.5 -131t125.5 -309q0 -125 -60 -234.5t-233 -296.5l-366 -395h679v-142h-999z" />
<glyph unicode="3" d="M72 394h144q38 -143 109 -207q91 -81 232 -81q160 0 257 96t97 225q0 86 -48.5 161t-130 113t-252.5 47v135q101 0 184 35.5t120.5 90.5t37.5 120q0 96 -76.5 166t-193.5 70q-95 0 -164 -53.5t-117 -181.5h-150q41 182 157 280t274 98q115 0 214.5 -52.5t154 -141.5 t54.5 -186q0 -190 -189 -301q106 -43 174 -126q96 -117 96 -262q0 -125 -66 -238.5t-180 -175.5t-255 -62q-190 0 -317 109.5t-166 321.5z" />
<glyph unicode="4" d="M52 342l820 1166h30v-1025h178v-141h-178v-342h-147v342h-703zM322 483h433v613z" />
<glyph unicode="5" d="M83 356h151q17 -85 57.5 -138t108 -85.5t141.5 -32.5q145 0 249 110t104 275q0 149 -94 242t-251 93q-130 0 -315 -79l136 730h637v-140h-524l-73 -401q96 28 173 28q201 0 331.5 -134.5t130.5 -344.5q0 -145 -67 -266t-181.5 -185.5t-264.5 -64.5q-179 0 -302 109.5 t-147 283.5z" />
<glyph unicode="6" d="M138 413q0 90 36.5 189.5t130.5 239.5l446 666l121 -79l-397 -602q80 27 150 27q175 0 297 -126.5t122 -311.5q0 -127 -59 -229.5t-167.5 -163t-233.5 -60.5q-121 0 -224.5 58.5t-162.5 164.5t-59 227zM281 415q0 -128 90.5 -218.5t218.5 -90.5t218.5 90.5t90.5 218.5 q0 129 -90.5 219.5t-218.5 90.5t-218.5 -90.5t-90.5 -219.5z" />
<glyph unicode="7" d="M147 1332v139h933l-787 -1508l-121 62l680 1307h-705z" />
<glyph unicode="8" d="M69 410q0 123 66 221.5t220 175.5q-108 56 -162 139t-54 178q0 96 57.5 187.5t159 144t219.5 52.5q115 0 213 -53t153.5 -144t55.5 -191t-52.5 -178t-157.5 -135q149 -74 213.5 -169t64.5 -216q0 -170 -111 -300q-136 -159 -389 -159q-244 0 -370 139.5t-126 307.5z M217 405q0 -81 44 -153t123 -111t183 -39q161 0 256 95t95 222q0 123 -100.5 218.5t-242.5 95.5q-152 0 -255 -98.5t-103 -229.5zM288 1123q0 -98 85.5 -177.5t199.5 -79.5q73 0 138 36t101.5 98.5t36.5 125.5q0 89 -72 164t-209 75q-121 0 -200.5 -71.5t-79.5 -170.5z" />
<glyph unicode="9" d="M100 1055q0 127 59 229t167.5 163t232.5 61q122 0 225.5 -59t162.5 -165t59 -226q0 -91 -36.5 -190.5t-130.5 -239.5l-446 -665l-121 78l397 602q-80 -26 -150 -26q-175 0 -297 126.5t-122 311.5zM244 1055q0 -128 90.5 -218.5t218.5 -90.5q129 0 219.5 90.5t90.5 218.5 t-90.5 218.5t-219.5 90.5q-128 0 -218.5 -90.5t-90.5 -218.5z" />
<glyph unicode=":" horiz-adv-x="567" d="M187 96q0 52 36 88t87 36t87 -36t36 -88q0 -51 -36 -87.5t-87 -36.5t-87 36.5t-36 87.5zM187 992q0 51 36 87.5t87 36.5t87 -36t36 -88t-36 -88t-87 -36t-87 36t-36 88z" />
<glyph unicode=";" horiz-adv-x="567" d="M128 -130l167 400l135 -64l-203 -378zM187 992q0 51 36 87.5t87 36.5t87 -36t36 -88t-36 -88t-87 -36t-87 36t-36 88z" />
<glyph unicode="&#x3c;" horiz-adv-x="1241" d="M104 670v130l1033 471v-147l-839 -390l839 -387v-146z" />
<glyph unicode="=" horiz-adv-x="1241" d="M115 447v137h1012v-137h-1012zM115 887v137h1012v-137h-1012z" />
<glyph unicode="&#x3e;" horiz-adv-x="1241" d="M104 201v146l839 387l-839 390v147l1033 -471v-130z" />
<glyph unicode="?" horiz-adv-x="1210" d="M170 1071q2 202 120.5 319.5t317.5 117.5q196 0 308 -99t112 -246q0 -70 -30.5 -129.5t-92.5 -107t-217 -108.5q-195 -78 -236 -116q-42 -39 -42 -94q0 -58 56.5 -104t146.5 -46q99 0 152 50.5t65 161.5h146q-7 -167 -103.5 -259.5t-259.5 -92.5q-162 0 -258 84t-96 207 q0 60 26.5 113.5t75 89.5t182.5 91q216 88 277 132q60 44 60 126q0 87 -73.5 147t-196.5 60q-150 0 -233 -99q-58 -69 -62 -198h-145zM484 96q0 52 36 88t87 36t87 -36t36 -88q0 -51 -36 -87.5t-87 -36.5t-87 36.5t-36 87.5z" />
<glyph unicode="@" horiz-adv-x="1776" d="M137 750q0 215 104.5 400t284.5 287.5t394 102.5q302 0 510 -193.5t208 -450.5q0 -187 -86.5 -322.5t-234.5 -210.5q-113 -58 -193 -58q-58 0 -92 31q-26 23 -27 80q-34 -43 -93.5 -72t-123.5 -29q-144 0 -238 99.5t-94 263.5q0 177 114 323t314 146q88 0 147.5 -33 t112.5 -115l26 138h108l-116 -654q-5 -32 -5 -41q0 -23 14 -36t36 -13q59 0 153.5 68.5t147 176t52.5 238.5q0 254 -197 421q-184 155 -448 155q-196 0 -355.5 -89.5t-252 -252t-92.5 -351.5q0 -191 93 -352.5t257.5 -253.5t362.5 -92q145 0 263 52t253 188h106 q-134 -167 -248 -234q-162 -94 -369 -94q-219 0 -404 103.5t-288.5 282.5t-103.5 391zM600 696q0 -123 66.5 -195.5t171.5 -72.5q66 0 124 41.5t92 124.5q44 109 44 219q0 101 -56.5 164t-146.5 63q-120 0 -207.5 -98.5t-87.5 -245.5z" />
<glyph unicode="A" horiz-adv-x="1515" d="M49 0l695 1471h36l686 -1471h-158l-231 484h-634l-230 -484h-164zM509 626h503l-250 533z" />
<glyph unicode="B" horiz-adv-x="1176" d="M183 0v1471h290q175 0 269 -41.5t148.5 -127.5t54.5 -191q0 -98 -48 -178.5t-141 -130.5q115 -39 177 -91.5t96.5 -127t34.5 -161.5q0 -177 -129.5 -299.5t-347.5 -122.5h-404zM327 144h182q161 0 236 31.5t120.5 98.5t45.5 145q0 98 -64 171t-176 100q-75 18 -261 18 h-83v-564zM327 856h84q153 0 225 28.5t114 90t42 136.5q0 101 -70.5 158.5t-224.5 57.5h-170v-471z" />
<glyph unicode="C" horiz-adv-x="1665" d="M111 744q0 323 226.5 543.5t567.5 220.5q206 0 372 -81.5t272 -228.5l-116 -89q-96 125 -230.5 189.5t-295.5 64.5q-176 0 -326 -84.5t-232.5 -227t-82.5 -320.5q0 -269 184.5 -449t465.5 -180q309 0 517 242l116 -88q-110 -140 -274.5 -216.5t-367.5 -76.5 q-386 0 -609 257q-187 217 -187 524z" />
<glyph unicode="D" horiz-adv-x="1524" d="M179 0v1471h305q330 0 479 -53q214 -75 334.5 -260t120.5 -441q0 -221 -95.5 -389t-248 -248t-427.5 -80h-468zM320 139h170q305 0 423 38q166 54 261 194.5t95 343.5q0 213 -103 364t-287 207q-138 42 -455 42h-104v-1189z" />
<glyph unicode="E" horiz-adv-x="1098" d="M180 0v1471h843v-145h-696v-460h690v-144h-690v-577h690v-145h-837z" />
<glyph unicode="F" horiz-adv-x="993" d="M179 0v1471h737v-145h-591v-460h591v-145h-591v-721h-146z" />
<glyph unicode="G" horiz-adv-x="1786" d="M117 736q0 209 105 389t288 281.5t414 101.5q187 0 352 -67.5t322 -216.5l-114 -108q-123 121 -269.5 183.5t-285.5 62.5q-173 0 -329.5 -85t-242.5 -230.5t-86 -307.5q0 -166 89 -315.5t246 -235t344 -85.5q227 0 384 128t186 332h-469v142h634q-2 -341 -202.5 -541.5 t-536.5 -200.5q-408 0 -646 278q-183 214 -183 495z" />
<glyph unicode="H" horiz-adv-x="1399" d="M177 0v1471h148v-617h748v617h148v-1471h-148v710h-748v-710h-148z" />
<glyph unicode="I" horiz-adv-x="463" d="M158 0v1471h147v-1471h-147z" />
<glyph unicode="J" horiz-adv-x="987" d="M86 119l78 117q115 -81 191 -114q50 -22 98 -22q63 0 114.5 38t72 101t20.5 244v988h148v-993q0 -229 -35.5 -318.5t-118.5 -143t-201 -53.5q-89 0 -175.5 34.5t-191.5 121.5z" />
<glyph unicode="K" horiz-adv-x="1210" d="M179 0v1471h150v-552l587 552h199l-707 -660l762 -811h-195l-646 686v-686h-150z" />
<glyph unicode="L" horiz-adv-x="946" d="M179 0v1471h148v-1329h565v-142h-713z" />
<glyph unicode="M" horiz-adv-x="1882" d="M112 0l209 1471h24l598 -1207l592 1207h24l211 -1471h-145l-144 1052l-520 -1052h-37l-527 1060l-143 -1060h-142z" />
<glyph unicode="N" horiz-adv-x="1515" d="M180 0v1471h32l978 -1126v1126h145v-1471h-33l-970 1112v-1112h-152z" />
<glyph unicode="O" horiz-adv-x="1780" d="M115 729q0 212 102.5 393t279.5 283.5t383 102.5q334 0 559 -223t225 -549q0 -323 -224.5 -548t-547.5 -225q-327 0 -552 224t-225 542zM268 729q0 -262 181.5 -442.5t437.5 -180.5q171 0 316.5 83t227 227t81.5 320q0 175 -81.5 316.5t-229.5 226.5t-314 85 q-163 0 -309 -85t-228 -229t-82 -321z" />
<glyph unicode="P" horiz-adv-x="1212" d="M178 0v1471h293q252 0 340 -22q126 -31 206 -127.5t80 -242.5q0 -147 -78 -242.5t-215 -128.5q-100 -24 -374 -24h-105v-684h-147zM325 828l249 -3q151 0 221 27.5t110 89t40 137.5q0 74 -40 135.5t-105.5 87.5t-214.5 26h-260v-500z" />
<glyph unicode="Q" horiz-adv-x="1784" d="M117 729q0 212 103 393.5t280.5 283.5t389.5 102q327 0 551.5 -223.5t224.5 -549.5q0 -170 -61.5 -311t-191.5 -264l218 -276h-181l-150 190q-180 -111 -406 -111q-327 0 -552 224t-225 542zM270 729q0 -262 181 -442.5t437 -180.5q175 0 320 85l-328 416h179l263 -332 q192 187 192 461q0 175 -81.5 316.5t-229.5 226.5t-312 85q-165 0 -311 -84.5t-228 -229t-82 -321.5z" />
<glyph unicode="R" horiz-adv-x="1243" d="M187 0v1471h293q245 0 332 -20q131 -30 213 -128.5t82 -242.5q0 -120 -56.5 -211t-161.5 -137.5t-290 -47.5l529 -684h-182l-528 684h-84v-684h-147zM334 827l253 -2q147 0 217.5 28t110 89.5t39.5 137.5q0 74 -40 134.5t-105 86.5t-216 26h-259v-500z" />
<glyph unicode="S" horiz-adv-x="1020" d="M27 274l125 75q132 -243 305 -243q74 0 139 34.5t99 92.5t34 123q0 74 -50 145q-69 98 -252 236q-184 139 -229 201q-78 104 -78 225q0 96 46 175t129.5 124.5t181.5 45.5q104 0 194.5 -51.5t191.5 -189.5l-120 -91q-83 110 -141.5 145t-127.5 35q-89 0 -145.5 -54 t-56.5 -133q0 -48 20 -93t73 -98q29 -28 190 -147q191 -141 262 -251t71 -221q0 -160 -121.5 -278t-295.5 -118q-134 0 -243 71.5t-201 239.5z" />
<glyph unicode="T" horiz-adv-x="872" d="M33 1328v143h807v-143h-328v-1328h-150v1328h-329z" />
<glyph unicode="U" horiz-adv-x="1341" d="M184 583v888h147v-888q0 -158 6 -197q11 -87 51 -145.5t123 -98t167 -39.5q73 0 140 31t112 86t66 133q15 56 15 230v888h147v-888q0 -197 -38.5 -318.5t-154 -211.5t-279.5 -90q-178 0 -305 85t-170 225q-27 86 -27 310z" />
<glyph unicode="V" horiz-adv-x="1438" d="M67 1471h160l487 -1137l496 1137h160l-640 -1471h-32z" />
<glyph unicode="W" horiz-adv-x="1966" d="M96 1471h151l299 -1060l422 1060h30l417 -1060l305 1060h150l-422 -1471h-28l-436 1113l-445 -1113h-28z" />
<glyph unicode="X" horiz-adv-x="1247" d="M69 0l469 758l-437 713h172l352 -574l355 574h170l-438 -713l467 -758h-172l-382 617l-384 -617h-172z" />
<glyph unicode="Y" horiz-adv-x="1212" d="M63 1471h170l376 -606l370 606h170l-466 -768v-703h-145v703z" />
<glyph unicode="Z" horiz-adv-x="983" d="M56 0l619 1329h-553v142h776l-615 -1328h584v-143h-811z" />
<glyph unicode="[" horiz-adv-x="719" d="M290 -398v1906h336v-142h-196v-1627h196v-137h-336z" />
<glyph unicode="\" horiz-adv-x="1239" d="M66 1508h154l952 -1708h-153z" />
<glyph unicode="]" horiz-adv-x="719" d="M93 -256h195v1627h-195v137h336v-1906h-336v142z" />
<glyph unicode="^" horiz-adv-x="1376" d="M120 365l509 1106h118l510 -1106h-133l-439 952l-436 -952h-129z" />
<glyph unicode="_" horiz-adv-x="1024" d="M-12 -154h1048v-102h-1048v102z" />
<glyph unicode="`" horiz-adv-x="774" d="M111 1598h215l218 -308h-138z" />
<glyph unicode="a" horiz-adv-x="1399" d="M107 547q0 235 165 402t397 167q134 0 242.5 -57t190.5 -171v200h138v-1088h-138v187q-88 -107 -197.5 -161t-239.5 -54q-231 0 -394.5 167.5t-163.5 407.5zM248 542q0 -115 59 -220t158.5 -163.5t213.5 -58.5q115 0 218 58t158.5 157t55.5 223q0 189 -124.5 316 t-306.5 127q-117 0 -216 -57.5t-157.5 -161.5t-58.5 -220z" />
<glyph unicode="b" horiz-adv-x="1397" d="M165 0v1508h139v-607q88 108 197 161.5t239 53.5q231 0 394.5 -167.5t163.5 -406.5q0 -236 -165 -403t-397 -167q-133 0 -241 57t-191 171v-200h-139zM294 550q0 -189 124.5 -316t306.5 -127q117 0 216 57.5t157.5 161.5t58.5 220t-59 221t-158.5 163.5t-212.5 58.5 q-115 0 -218.5 -58.5t-159 -157.5t-55.5 -223z" />
<glyph unicode="c" horiz-adv-x="1325" d="M105 535q0 158 79.5 293.5t218.5 211.5t311 76q108 0 208.5 -33t170.5 -86t119 -135l-111 -69q-144 191 -393 191q-199 0 -330.5 -128t-131.5 -311q0 -119 60.5 -224t166 -163t236.5 -58q240 0 392 191l111 -73q-78 -117 -209.5 -181.5t-299.5 -64.5q-258 0 -428 164 t-170 399z" />
<glyph unicode="d" horiz-adv-x="1403" d="M109 547q0 235 165 402t397 167q134 0 242.5 -57t190.5 -171v620h138v-1508h-138v187q-88 -107 -197.5 -161t-239.5 -54q-231 0 -394.5 167.5t-163.5 407.5zM250 542q0 -115 59 -220t158.5 -163.5t213.5 -58.5q115 0 218 58t158.5 157t55.5 223q0 189 -124.5 316 t-306.5 127q-117 0 -216 -57.5t-157.5 -161.5t-58.5 -220z" />
<glyph unicode="e" horiz-adv-x="1331" d="M104 541q0 207 127 369q161 206 431 206q278 0 444 -211q118 -149 120 -372h-978q4 -190 121 -311.5t289 -121.5q83 0 161.5 29t133.5 77t119 155l118 -62q-58 -114 -134 -184t-171 -106.5t-215 -36.5q-266 0 -416 174.5t-150 394.5zM262 654h810q-28 112 -81.5 179 t-141.5 108t-185 41q-160 0 -275 -103q-84 -75 -127 -225z" />
<glyph unicode="f" horiz-adv-x="643" d="M79 968v120h143v170q0 117 21.5 167t73 80.5t124.5 30.5q68 0 163 -28v-137q-77 33 -132 33q-41 0 -68 -16.5t-34 -38t-7 -114.5v-147h227v-120h-228v-968h-140v968h-143z" />
<glyph unicode="g" horiz-adv-x="1378" d="M100 552q0 151 75 281.5t207.5 206.5t279.5 76q122 0 227.5 -50.5t203.5 -166.5v189h141v-867q0 -229 -40 -335q-55 -150 -191 -231t-327 -81q-140 0 -251.5 39.5t-181.5 106t-129 194.5h152q62 -108 160 -160t243 -52q143 0 241.5 53.5t140.5 134.5t42 261v56 q-79 -100 -193 -153.5t-242 -53.5q-150 0 -282 74.5t-204 200.5t-72 277zM241 545q0 -179 120 -296t311 -117q193 0 310.5 116t117.5 305q0 123 -54 219.5t-153 152.5t-213 56q-119 0 -221 -57.5t-160 -159t-58 -219.5z" />
<glyph unicode="h" horiz-adv-x="1249" d="M156 0v1508h140v-615q85 112 187 167.5t221 55.5q122 0 216.5 -62t139.5 -166.5t45 -327.5v-560h-140v519q0 188 -15 251q-26 108 -94.5 162.5t-179.5 54.5q-127 0 -227.5 -84t-132.5 -208q-20 -80 -20 -296v-399h-140z" />
<glyph unicode="i" horiz-adv-x="410" d="M90 1420q0 48 34 82t81 34q48 0 82 -34t34 -82q0 -47 -34 -81t-82 -34q-47 0 -81 34t-34 81zM135 0v1088h141v-1088h-141z" />
<glyph unicode="j" horiz-adv-x="416" d="M-64 -266q56 -29 101 -29q57 0 85 47q17 30 17 125v1211h142v-1252q0 -137 -49.5 -199.5t-135.5 -62.5q-71 0 -160 34v126zM93 1420q0 48 33.5 82t81.5 34t81.5 -34t33.5 -82q0 -47 -33.5 -81t-81.5 -34t-81.5 34t-33.5 81z" />
<glyph unicode="k" horiz-adv-x="1028" d="M155 0v1508h141v-858l503 438h206l-597 -519l632 -569h-198l-546 489v-489h-141z" />
<glyph unicode="l" horiz-adv-x="410" d="M135 0v1508h140v-1508h-140z" />
<glyph unicode="m" horiz-adv-x="1921" d="M155 0v1088h139v-188q73 104 150 152q106 64 223 64q79 0 150 -31t116 -82.5t78 -147.5q70 128 175 194.5t226 66.5q113 0 199.5 -57t128.5 -159t42 -306v-594h-143v594q0 175 -25 240.5t-85.5 105.5t-144.5 40q-102 0 -186.5 -60t-123.5 -160t-39 -334v-426h-139v557 q0 197 -24.5 267.5t-85.5 113t-145 42.5q-97 0 -181.5 -58.5t-125 -157.5t-40.5 -303v-461h-139z" />
<glyph unicode="n" horiz-adv-x="1249" d="M156 0v1088h140v-195q84 112 186 167.5t222 55.5q122 0 216.5 -62t139.5 -167t45 -327v-560h-139v519q0 188 -16 251q-25 108 -94 162.5t-180 54.5q-127 0 -227.5 -84t-132.5 -208q-20 -81 -20 -296v-399h-140z" />
<glyph unicode="o" horiz-adv-x="1341" d="M104 541q0 226 150 392q165 183 417 183q251 0 416 -182q150 -166 150 -393q0 -228 -158.5 -398.5t-407.5 -170.5q-250 0 -408.5 170.5t-158.5 398.5zM247 538q0 -118 57 -220t154 -157.5t213 -55.5t213 55.5t154 157.5t57 220q0 183 -125.5 312t-298.5 129 q-174 0 -299 -129t-125 -312z" />
<glyph unicode="p" horiz-adv-x="1397" d="M158 -398v1486h139v-200q83 114 191 171t241 57q232 0 397 -167t165 -402q0 -240 -163.5 -407.5t-394.5 -167.5q-130 0 -239 54t-197 161v-585h-139zM287 538q0 -124 55.5 -223t159 -157t218.5 -58q113 0 212.5 58.5t158.5 163.5t59 220q0 116 -58.5 220t-157.5 161.5 t-216 57.5q-182 0 -306.5 -127t-124.5 -316z" />
<glyph unicode="q" horiz-adv-x="1397" d="M106 547q0 235 165 402t397 167q134 0 242.5 -57t190.5 -171v200h138v-1486h-138v585q-88 -107 -197.5 -161t-239.5 -54q-231 0 -394.5 167.5t-163.5 407.5zM247 542q0 -115 59 -220t158.5 -163.5t213.5 -58.5q115 0 218 58t158.5 157t55.5 223q0 189 -124.5 316 t-306.5 127q-117 0 -216 -57.5t-157.5 -161.5t-58.5 -220z" />
<glyph unicode="r" horiz-adv-x="616" d="M103 0v1088h143v-159q64 94 135 140.5t148 46.5q58 0 124 -37l-73 -118q-44 19 -74 19q-70 0 -135 -57.5t-99 -178.5q-26 -93 -26 -376v-368h-143z" />
<glyph unicode="s" horiz-adv-x="795" d="M54 126l88 100q107 -121 227 -121q84 0 143 54t59 127q0 60 -39 107q-39 46 -176 116q-147 76 -200 150t-53 169q0 124 84.5 206t213.5 82q150 0 302 -147l-90 -93q-112 109 -219 109q-68 0 -116.5 -45t-48.5 -105q0 -53 40 -101q40 -49 168 -115q156 -81 212 -156 q55 -76 55 -171q0 -134 -94 -227t-235 -93q-94 0 -179.5 41t-141.5 113z" />
<glyph unicode="t" horiz-adv-x="694" d="M87 968v120h191v404h141v-404h222v-120h-222v-968h-141v968h-191z" />
<glyph unicode="u" horiz-adv-x="1245" d="M138 564v524h141v-508q0 -186 20 -256q30 -100 114.5 -158t201.5 -58t198.5 56.5t112.5 148.5q21 63 21 267v508h143v-534q0 -225 -52.5 -339t-158 -178.5t-264.5 -64.5t-265.5 64.5t-159 180t-52.5 347.5z" />
<glyph unicode="v" d="M53 1088h149l364 -792l361 792h150l-498 -1088h-25z" />
<glyph unicode="w" horiz-adv-x="1702" d="M9 1088h144l333 -790l349 790h25l348 -790l339 790h146l-472 -1088h-27l-346 779l-349 -779h-26z" />
<glyph unicode="x" horiz-adv-x="983" d="M-7 0l412 571l-373 517h168l288 -403l288 403h168l-372 -517l419 -571h-170l-333 457l-328 -457h-167z" />
<glyph unicode="y" horiz-adv-x="1098" d="M39 1088h148l374 -838l363 838h149l-649 -1486h-148l210 480z" />
<glyph unicode="z" horiz-adv-x="870" d="M9 0l616 965h-558v123h799l-616 -964h596v-124h-837z" />
<glyph unicode="{" horiz-adv-x="719" d="M75 428v163q61 2 99 24q49 29 74.5 80t30.5 144q2 46 3.5 211t21.5 236t62 113t107 61q39 11 125 11h56v-157h-31q-105 0 -138.5 -38.5t-33.5 -167.5q0 -233 -7 -297q-13 -123 -58.5 -188.5t-143.5 -112.5q110 -47 159.5 -141.5t49.5 -309.5q0 -192 4 -227q6 -54 25 -83 q14 -20 44.5 -31.5t129.5 -11.5v-157h-56q-100 0 -146 17q-67 25 -107.5 80.5t-52.5 148.5q-9 66 -10 246q-1 184 -20.5 249t-66.5 100.5t-120 37.5z" />
<glyph unicode="|" horiz-adv-x="1376" d="M616 -398v1906h143v-1906h-143z" />
<glyph unicode="}" horiz-adv-x="719" d="M65 -294h31q105 0 138.5 38t33.5 167q0 239 8 304q14 121 63.5 189t137.5 106q-117 56 -163 147.5t-46 302.5q0 221 -9 259q-11 51 -42.5 73t-120.5 22h-31v157h56q100 0 146 -18q67 -24 107.5 -80t52.5 -148q9 -66 10 -246q1 -184 20.5 -249.5t66.5 -101t120 -37.5v-163 q-61 -1 -99 -23q-49 -29 -74.5 -80t-30.5 -144q-2 -46 -3.5 -211.5t-21.5 -236t-62 -113t-107 -60.5q-39 -11 -125 -11h-56v157z" />
<glyph unicode="~" horiz-adv-x="1241" d="M112 634v160q110 62 159 79t95 17q97 0 268 -81q118 -56 161.5 -69.5t78.5 -13.5q42 0 85 16.5t169 94.5v-162q-112 -63 -160.5 -79.5t-91.5 -16.5q-95 0 -265 77q-132 60 -168.5 71.5t-68.5 11.5q-44 0 -97 -19t-165 -86z" />
<glyph unicode="&#xa1;" horiz-adv-x="604" d="M179 986q0 51 36 87.5t87 36.5t87 -36t36 -88t-36 -88t-87 -36t-87 36t-36 88zM231 -426v1140h145v-1140h-145z" />
<glyph unicode="&#xa2;" d="M103 535q0 240 150.5 410.5t393.5 170.5q90 0 181 -33l133 257l121 -60l-132 -257q72 -46 116 -94l-85 -105q-46 44 -95 76l-394 -766q75 -32 144 -32q146 0 306 128l91 -106q-78 -69 -184 -110.5t-212 -41.5q-96 0 -208 37l-152 -295l-117 64l151 301q-108 97 -158 209 t-50 247zM244 543q0 -109 33 -191t100 -143l388 752q-64 21 -121 21q-171 0 -285.5 -120.5t-114.5 -318.5z" />
<glyph unicode="&#xa3;" d="M57 151q0 96 66 164t156 68q67 0 144 -39q7 67 7 106q0 141 -45 265h-286v129h254q-54 192 -60 227q-11 57 -11 108q0 134 104 231.5t257 97.5q100 0 171.5 -42.5t117.5 -123t57 -217.5h-136q-4 121 -59 185t-147 64q-101 0 -163 -56.5t-62 -148.5q0 -81 29 -163l7 -18 l45 -144h320v-129h-286q37 -126 37 -264q0 -107 -22 -188q61 -51 166 -115q60 -36 110 -36q95 0 106 232h141q1 -117 -33.5 -211.5t-84.5 -132t-112 -37.5q-67 0 -145 35q-108 48 -197 125q-83 -160 -237 -160q-96 0 -152.5 50.5t-56.5 137.5zM194 171q0 -32 19.5 -53.5 t47.5 -21.5q75 0 124 111q-68 41 -114 41q-33 0 -55 -22t-22 -55z" />
<glyph unicode="&#xa4;" d="M41 1042l90 91l120 -119q76 59 156.5 85.5t164.5 26.5q81 0 156 -24t156 -82l117 113l88 -91l-116 -112q64 -79 89.5 -153t25.5 -162q0 -86 -24.5 -158.5t-84.5 -150.5l116 -114l-89 -90l-116 115q-79 -62 -156.5 -88.5t-164.5 -26.5q-86 0 -162.5 26t-158.5 89 l-117 -115l-89 90l116 114q-61 82 -84.5 153.5t-23.5 154.5q0 89 28 171q21 63 83 140zM193 612q0 -154 110.5 -263t265.5 -109q156 0 266 110t110 265t-109.5 264.5t-265.5 109.5t-266.5 -110.5t-110.5 -266.5z" />
<glyph unicode="&#xa5;" d="M62 1471h167l337 -602l340 602h166l-417 -735h356v-117h-374v-155h374v-117h-374v-347h-144v347h-370v117h370v155h-370v117h353z" />
<glyph unicode="&#xa6;" horiz-adv-x="1376" d="M616 -398v957l143 54v-1011h-143zM616 686v822h143v-767z" />
<glyph unicode="&#xa7;" horiz-adv-x="1259" d="M130 616q0 63 31 123.5t87.5 106t141.5 70.5q-99 71 -138.5 143t-39.5 160q0 139 100.5 228t271.5 89q166 0 264 -88.5t116 -253.5h-147q-11 94 -72 147.5t-159 53.5q-106 0 -166.5 -52t-60.5 -128q0 -44 19 -81q26 -50 83 -98.5t198 -132.5q165 -99 223.5 -151 t87.5 -113t29 -119q0 -101 -77.5 -186t-208.5 -110q106 -66 162 -155t56 -181q0 -132 -102 -223t-267 -91q-163 0 -271 83t-129 205h148q23 -64 67 -99q72 -58 176 -58q105 0 167.5 53t62.5 128q0 68 -50 132t-230 179q-172 110 -210 138q-84 65 -123.5 136t-39.5 145z M276 623q0 -73 53 -133q69 -79 267 -184q122 15 189.5 76.5t67.5 140.5q0 62 -47 114t-285 193l-14 9q-110 -17 -170.5 -75.5t-60.5 -140.5z" />
<glyph unicode="&#xa8;" horiz-adv-x="756" d="M58 1402q0 48 34 82t82 34t82 -34t34 -82t-34 -82t-82 -34t-82 34t-34 82zM466 1402q0 48 34 82t82 34t82 -34t34 -82t-34 -82t-82 -34t-82 34t-34 82z" />
<glyph unicode="&#xa9;" horiz-adv-x="1530" d="M-20 757q0 210 105 391.5t287.5 286.5t393.5 105q210 0 392.5 -105t287.5 -286.5t105 -391.5q0 -211 -105 -392t-287.5 -286.5t-392.5 -105.5t-393 105.5t-288 287t-105 391.5zM89 757q0 -182 90.5 -339t248 -247.5t338.5 -90.5t338 90.5t247.5 247.5t90.5 339 t-90.5 338.5t-247.5 247.5t-339 91q-181 0 -338 -91t-247.5 -248t-90.5 -338zM355 753q0 226 117.5 352t298.5 126q167 0 267 -83.5t112 -223.5h-136q-21 89 -79.5 133.5t-155.5 44.5q-127 0 -204 -89.5t-77 -261.5q0 -168 74 -256t193 -88q100 0 165.5 61.5t83.5 184.5h136 q-19 -164 -124 -261t-256 -97q-189 0 -302 121.5t-113 336.5z" />
<glyph unicode="&#xaa;" horiz-adv-x="756" d="M57 1152q0 153 87 254.5t201 101.5q61 0 112.5 -29t92.5 -87v99h114v-681h-114v94q-42 -55 -93.5 -82.5t-113.5 -27.5q-114 0 -200 101.5t-86 256.5zM173 1150q0 -110 58 -181t133 -71q77 0 134.5 68t57.5 182q0 112 -57 181.5t-134 69.5t-134.5 -70t-57.5 -179z" />
<glyph unicode="&#xab;" horiz-adv-x="870" d="M21 542l222 546h148l-223 -546l223 -542h-148zM479 542l222 546h148l-224 -546l224 -542h-148z" />
<glyph unicode="&#xac;" horiz-adv-x="1241" d="M115 887v137h1012v-577h-137l-1 440h-874z" />
<glyph unicode="&#xad;" horiz-adv-x="680" d="M65 492v122h550v-122h-550z" />
<glyph unicode="&#xae;" horiz-adv-x="1530" d="M-20 756q0 210 105.5 394t288 289t392.5 105t391.5 -104.5t287.5 -288.5t106 -391q0 -212 -105 -393.5t-288 -287.5t-392 -106t-392 105.5t-288.5 287.5t-105.5 390zM89 757q0 -181 90.5 -338t249.5 -248t339 -91q179 0 336 91.5t247.5 248t90.5 339.5q0 180 -91 338.5 t-247 249.5t-336 91q-181 0 -339.5 -91t-249 -249.5t-90.5 -340.5zM439 313v904h377q132 0 190 -26.5t94.5 -86.5t36.5 -140q0 -69 -26 -119q-20 -37 -87 -81q61 -30 82 -69.5t21 -135.5v-102q0 -72 32 -120l15 -24h-160q-15 56 -21 133l-7 111q-4 61 -19.5 86t-44 36 t-113.5 11h-227v-377h-143zM582 819h222q101 0 137 23q53 33 53 112q0 69 -38 101t-143 32h-231v-268z" />
<glyph unicode="&#xaf;" horiz-adv-x="1024" d="M-12 1624v103h1048v-103h-1048z" />
<glyph unicode="&#xb0;" horiz-adv-x="819" d="M65 1167q0 141 102.5 241t244.5 100t242.5 -100t100.5 -244q0 -145 -101 -244.5t-245 -99.5t-244 100t-100 247zM184 1164q0 -97 68 -167.5t160 -70.5t158 69t66 167q0 102 -65 171t-158 69q-94 0 -161.5 -69.5t-67.5 -168.5z" />
<glyph unicode="&#xb1;" horiz-adv-x="1124" d="M56 24v137h1012v-137h-1012zM56 776v137h437v434h137v-434h438v-137h-438v-434h-137v434h-437z" />
<glyph unicode="&#xb2;" horiz-adv-x="680" d="M6 733l358 325q106 96 132 136.5t26 79.5q0 54 -49.5 95t-125.5 41q-85 0 -135 -46t-57 -130h-106q2 119 85.5 196.5t216.5 77.5q124 0 202 -68.5t78 -163.5q0 -60 -33 -116t-143 -156l-190 -172h377v-99h-636z" />
<glyph unicode="&#xb3;" horiz-adv-x="705" d="M44 956h109q20 -73 67.5 -107.5t124.5 -34.5q90 0 143.5 43.5t53.5 101.5q0 66 -60 103t-194 42v94q102 0 152 32.5t50 75.5q0 40 -40.5 71.5t-107.5 31.5q-55 0 -92 -26t-66 -90h-112q27 106 97 160.5t173 54.5q116 0 189.5 -60.5t73.5 -142.5q0 -87 -91 -146 q67 -32 102.5 -84t35.5 -110q0 -101 -84.5 -175.5t-222.5 -74.5q-125 0 -201.5 61.5t-99.5 179.5z" />
<glyph unicode="&#xb4;" horiz-adv-x="768" d="M234 1290l218 308h215l-295 -308h-138z" />
<glyph unicode="&#xb5;" horiz-adv-x="1180" d="M147 -398v1486h141v-600q0 -136 33.5 -203t108.5 -112.5t162 -45.5t156.5 43.5t107 120t37.5 210.5v587h140v-1088h-140v118q-59 -74 -133.5 -108.5t-168.5 -34.5t-169.5 34.5t-133.5 105.5v-513h-141z" />
<glyph unicode="&#xb6;" horiz-adv-x="1155" d="M94 1105q0 189 116 308q97 100 299 100h513v-75h-84v-1669h-119v1669h-217v-1669h-119v937q-75 0 -111 8q-78 17 -141 67.5t-100 135t-37 188.5z" />
<glyph unicode="&#xb7;" horiz-adv-x="682" d="M486 754q0 48 34 82t82 34t82 -34t34 -82t-34 -82t-82 -34t-82 34t-34 82z" />
<glyph unicode="&#xb8;" horiz-adv-x="664" d="M139 -350l22 69q64 -20 120 -20q75 0 105 18.5t30 46.5q0 17 -16.5 30t-45.5 13q-24 0 -70 -9l27 202h88l-17 -118q23 3 38 3q49 0 82 -30.5t33 -76.5q0 -66 -60 -112t-169 -46q-89 0 -167 30z" />
<glyph unicode="&#xb9;" horiz-adv-x="680" d="M151 1391l73 98h187v-756h-110v658h-150z" />
<glyph unicode="&#xba;" horiz-adv-x="756" d="M55 1149q0 154 95 256.5t227 102.5q133 0 228 -103t95 -256q0 -152 -94.5 -253.5t-228.5 -101.5q-133 0 -227.5 101.5t-94.5 253.5zM172 1147q0 -107 60.5 -176.5t144.5 -69.5q85 0 145.5 69.5t60.5 176.5t-62 179t-144 72q-81 0 -143 -72t-62 -179z" />
<glyph unicode="&#xbb;" horiz-adv-x="870" d="M21 0l223 545l-223 543h148l222 -543l-222 -545h-148zM479 0l223 545l-223 543h147l223 -543l-223 -545h-147z" />
<glyph unicode="&#xbc;" horiz-adv-x="1702" d="M115 1391l73 98h187v-756h-110v658h-150zM388 -37l923 1545h112l-925 -1545h-110zM1011 161l543 625v-528h105v-97h-105v-170h-111v170h-432zM1229 258h214v248z" />
<glyph unicode="&#xbd;" horiz-adv-x="1702" d="M104 1391l73 98h187v-756h-110v658h-150zM277 -37l923 1545h112l-925 -1545h-110zM939 -9l358 325q106 96 132 136.5t26 79.5q0 54 -49.5 95t-125.5 41q-85 0 -135 -46t-57 -130h-106q2 119 85.5 196.5t216.5 77.5q124 0 202 -68.5t78 -163.5q0 -60 -33 -116t-143 -156 l-190 -172h377v-99h-636z" />
<glyph unicode="&#xbe;" horiz-adv-x="1702" d="M69 956h109q20 -73 67.5 -107.5t124.5 -34.5q90 0 143.5 43.5t53.5 101.5q0 66 -60 103t-194 42v94q102 0 152 32.5t50 75.5q0 40 -40.5 71.5t-107.5 31.5q-55 0 -92 -26t-66 -90h-112q27 106 97 160.5t173 54.5q116 0 189.5 -60.5t73.5 -142.5q0 -87 -91 -146 q67 -32 102.5 -84t35.5 -110q0 -101 -84.5 -175.5t-222.5 -74.5q-125 0 -201.5 61.5t-99.5 179.5zM431 -37l923 1545h112l-925 -1545h-110zM1004 161l543 625v-528h105v-97h-105v-170h-111v170h-432zM1222 258h214v248z" />
<glyph unicode="&#xbf;" horiz-adv-x="1210" d="M183 -81q0 70 31 129.5t92.5 107t216.5 108.5q195 78 237 117q41 39 41 93q0 58 -56.5 104t-146.5 46q-99 0 -152 -50.5t-65 -161.5h-146q7 167 103.5 260t259.5 93q162 0 258 -84t96 -208q0 -60 -26.5 -113.5t-75 -89.5t-182.5 -91q-216 -88 -276 -132q-61 -44 -61 -125 q0 -87 73.5 -147.5t196.5 -60.5q151 0 234 99q58 69 61 198h145q-2 -202 -120.5 -319.5t-317.5 -117.5q-196 0 -308 99t-112 246zM481 986q0 51 36 87.5t87 36.5t87 -36t36 -88t-36 -88t-87 -36t-87 36t-36 88z" />
<glyph unicode="&#xc0;" horiz-adv-x="1515" d="M49 0l695 1471h36l686 -1471h-158l-231 484h-634l-230 -484h-164zM482 1895h215l218 -308h-138zM509 626h503l-250 533z" />
<glyph unicode="&#xc1;" horiz-adv-x="1515" d="M49 0l695 1471h36l686 -1471h-158l-231 484h-634l-230 -484h-164zM509 626h503l-250 533zM607 1587l218 308h215l-295 -308h-138z" />
<glyph unicode="&#xc2;" horiz-adv-x="1515" d="M49 0l695 1471h36l686 -1471h-158l-231 484h-634l-230 -484h-164zM394 1583l297 257h139l290 -257h-180l-176 152l-184 -152h-186zM509 626h503l-250 533z" />
<glyph unicode="&#xc3;" horiz-adv-x="1515" d="M49 0l695 1471h36l686 -1471h-158l-231 484h-634l-230 -484h-164zM391 1718q91 97 225 97q64 0 153 -40q85 -39 134 -39q55 0 151 53l70 -97q-72 -52 -121.5 -70t-104.5 -18q-72 0 -148 37q-65 32 -83 37q-24 7 -52 7q-35 0 -66.5 -12.5t-91.5 -56.5zM509 626h503 l-250 533z" />
<glyph unicode="&#xc4;" horiz-adv-x="1515" d="M49 0l695 1471h36l686 -1471h-158l-231 484h-634l-230 -484h-164zM438 1700q0 48 34 82t82 34t82 -34t34 -82t-34 -82t-82 -34t-82 34t-34 82zM509 626h503l-250 533zM846 1700q0 48 34 82t82 34t82 -34t34 -82t-34 -82t-82 -34t-82 34t-34 82z" />
<glyph unicode="&#xc5;" horiz-adv-x="1515" d="M49 0l695 1471h36l686 -1471h-158l-231 484h-634l-230 -484h-164zM509 626h503l-250 533zM544 1775q0 89 62.5 151.5t150.5 62.5t150.5 -62.5t62.5 -151.5q0 -88 -62 -150.5t-151 -62.5q-88 0 -150.5 62.5t-62.5 150.5zM646 1778q0 -45 32 -77.5t78 -32.5q45 0 77 32.5 t32 77.5t-32 77.5t-77 32.5q-46 0 -78 -32.5t-32 -77.5z" />
<glyph unicode="&#xc6;" horiz-adv-x="2032" d="M1 0l950 1471h910v-151h-693v-452h693v-145h-693v-579h693v-144h-842v482h-535l-312 -482h-171zM578 620h441v681z" />
<glyph unicode="&#xc7;" horiz-adv-x="1665" d="M111 744q0 323 226.5 543.5t567.5 220.5q206 0 372 -81.5t272 -228.5l-116 -89q-96 125 -230.5 189.5t-295.5 64.5q-176 0 -326 -84.5t-232.5 -227t-82.5 -320.5q0 -269 184.5 -449t465.5 -180q309 0 517 242l116 -88q-110 -140 -274.5 -216.5t-367.5 -76.5 q-386 0 -609 257q-187 217 -187 524zM639 -350l22 69q64 -20 120 -20q75 0 105 18.5t30 46.5q0 17 -16.5 30t-45.5 13q-24 0 -70 -9l27 202h88l-17 -118q23 3 38 3q49 0 82 -30.5t33 -76.5q0 -66 -60 -112t-169 -46q-89 0 -167 30z" />
<glyph unicode="&#xc8;" horiz-adv-x="1098" d="M180 0v1471h843v-145h-696v-460h690v-144h-690v-577h690v-145h-837zM334 1895h215l218 -308h-138z" />
<glyph unicode="&#xc9;" horiz-adv-x="1098" d="M180 0v1471h843v-145h-696v-460h690v-144h-690v-577h690v-145h-837zM459 1587l218 308h215l-295 -308h-138z" />
<glyph unicode="&#xca;" horiz-adv-x="1098" d="M180 0v1471h843v-145h-696v-460h690v-144h-690v-577h690v-145h-837zM246 1583l297 257h139l290 -257h-180l-176 152l-184 -152h-186z" />
<glyph unicode="&#xcb;" horiz-adv-x="1098" d="M180 0v1471h843v-145h-696v-460h690v-144h-690v-577h690v-145h-837zM290 1700q0 48 34 82t82 34t82 -34t34 -82t-34 -82t-82 -34t-82 34t-34 82zM698 1700q0 48 34 82t82 34t82 -34t34 -82t-34 -82t-82 -34t-82 34t-34 82z" />
<glyph unicode="&#xcc;" horiz-adv-x="463" d="M-44 1895h215l218 -308h-138zM158 0v1471h147v-1471h-147z" />
<glyph unicode="&#xcd;" horiz-adv-x="463" d="M81 1587l218 308h215l-295 -308h-138zM158 0v1471h147v-1471h-147z" />
<glyph unicode="&#xce;" horiz-adv-x="463" d="M-132 1583l297 257h139l290 -257h-180l-176 152l-184 -152h-186zM158 0v1471h147v-1471h-147z" />
<glyph unicode="&#xcf;" horiz-adv-x="463" d="M-88 1700q0 48 34 82t82 34t82 -34t34 -82t-34 -82t-82 -34t-82 34t-34 82zM158 0v1471h147v-1471h-147zM320 1700q0 48 34 82t82 34t82 -34t34 -82t-34 -82t-82 -34t-82 34t-34 82z" />
<glyph unicode="&#xd0;" horiz-adv-x="1618" d="M34 667v137h179v667h366q329 0 479 -53q213 -75 333.5 -260t120.5 -441q0 -221 -95.5 -389t-248 -248t-426.5 -80h-529v667h-179zM354 139h230q305 0 423 38q166 54 261.5 194.5t95.5 343.5q0 213 -103.5 364t-287.5 207q-138 42 -455 42h-164v-524h387v-137h-387v-528z " />
<glyph unicode="&#xd1;" horiz-adv-x="1515" d="M180 0v1471h32l978 -1126v1126h145v-1471h-33l-970 1112v-1112h-152zM391 1718q91 97 225 97q64 0 153 -40q85 -39 134 -39q55 0 151 53l70 -97q-72 -52 -121.5 -70t-104.5 -18q-72 0 -148 37q-65 32 -83 37q-24 7 -52 7q-35 0 -66.5 -12.5t-91.5 -56.5z" />
<glyph unicode="&#xd2;" horiz-adv-x="1780" d="M115 729q0 212 102.5 393t279.5 283.5t383 102.5q334 0 559 -223t225 -549q0 -323 -224.5 -548t-547.5 -225q-327 0 -552 224t-225 542zM268 729q0 -262 181.5 -442.5t437.5 -180.5q171 0 316.5 83t227 227t81.5 320q0 175 -81.5 316.5t-229.5 226.5t-314 85 q-163 0 -309 -85t-228 -229t-82 -321zM614 1895h215l218 -308h-138z" />
<glyph unicode="&#xd3;" horiz-adv-x="1780" d="M115 729q0 212 102.5 393t279.5 283.5t383 102.5q334 0 559 -223t225 -549q0 -323 -224.5 -548t-547.5 -225q-327 0 -552 224t-225 542zM268 729q0 -262 181.5 -442.5t437.5 -180.5q171 0 316.5 83t227 227t81.5 320q0 175 -81.5 316.5t-229.5 226.5t-314 85 q-163 0 -309 -85t-228 -229t-82 -321zM740 1587l218 308h215l-295 -308h-138z" />
<glyph unicode="&#xd4;" horiz-adv-x="1780" d="M115 729q0 212 102.5 393t279.5 283.5t383 102.5q334 0 559 -223t225 -549q0 -323 -224.5 -548t-547.5 -225q-327 0 -552 224t-225 542zM268 729q0 -262 181.5 -442.5t437.5 -180.5q171 0 316.5 83t227 227t81.5 320q0 175 -81.5 316.5t-229.5 226.5t-314 85 q-163 0 -309 -85t-228 -229t-82 -321zM527 1583l297 257h139l290 -257h-180l-176 152l-184 -152h-186z" />
<glyph unicode="&#xd5;" horiz-adv-x="1780" d="M115 729q0 212 102.5 393t279.5 283.5t383 102.5q334 0 559 -223t225 -549q0 -323 -224.5 -548t-547.5 -225q-327 0 -552 224t-225 542zM268 729q0 -262 181.5 -442.5t437.5 -180.5q171 0 316.5 83t227 227t81.5 320q0 175 -81.5 316.5t-229.5 226.5t-314 85 q-163 0 -309 -85t-228 -229t-82 -321zM523 1718q91 97 225 97q64 0 153 -40q85 -39 134 -39q55 0 151 53l70 -97q-72 -52 -121.5 -70t-104.5 -18q-72 0 -148 37q-65 32 -83 37q-24 7 -52 7q-35 0 -66.5 -12.5t-91.5 -56.5z" />
<glyph unicode="&#xd6;" horiz-adv-x="1780" d="M115 729q0 212 102.5 393t279.5 283.5t383 102.5q334 0 559 -223t225 -549q0 -323 -224.5 -548t-547.5 -225q-327 0 -552 224t-225 542zM268 729q0 -262 181.5 -442.5t437.5 -180.5q171 0 316.5 83t227 227t81.5 320q0 175 -81.5 316.5t-229.5 226.5t-314 85 q-163 0 -309 -85t-228 -229t-82 -321zM570 1700q0 48 34 82t82 34t82 -34t34 -82t-34 -82t-82 -34t-82 34t-34 82zM978 1700q0 48 34 82t82 34t82 -34t34 -82t-34 -82t-82 -34t-82 34t-34 82z" />
<glyph unicode="&#xd7;" horiz-adv-x="1241" d="M197 404l331 331l-331 332l92 92l332 -332l331 332l92 -92l-332 -332l332 -331l-92 -92l-331 331l-332 -331z" />
<glyph unicode="&#xd8;" horiz-adv-x="1778" d="M114 729q0 212 103 393.5t281 283.5t391 102q257 0 467 -148l144 174l105 -87l-151 -178q100 -102 154.5 -238.5t54.5 -294.5q0 -323 -224.5 -548t-547.5 -225q-245 0 -437 128l-164 -194l-107 87l165 194q-234 227 -234 551zM267 728q0 -255 177 -437l811 954 q-169 119 -369 119q-163 0 -309 -85t-228 -229t-82 -322zM551 204q152 -98 335 -98q171 0 316.5 83t227 227t81.5 320q0 244 -155 417z" />
<glyph unicode="&#xd9;" horiz-adv-x="1341" d="M184 583v888h147v-888q0 -158 6 -197q11 -87 51 -145.5t123 -98t167 -39.5q73 0 140 31t112 86t66 133q15 56 15 230v888h147v-888q0 -197 -38.5 -318.5t-154 -211.5t-279.5 -90q-178 0 -305 85t-170 225q-27 86 -27 310zM395 1895h215l218 -308h-138z" />
<glyph unicode="&#xda;" horiz-adv-x="1341" d="M184 583v888h147v-888q0 -158 6 -197q11 -87 51 -145.5t123 -98t167 -39.5q73 0 140 31t112 86t66 133q15 56 15 230v888h147v-888q0 -197 -38.5 -318.5t-154 -211.5t-279.5 -90q-178 0 -305 85t-170 225q-27 86 -27 310zM521 1587l218 308h215l-295 -308h-138z" />
<glyph unicode="&#xdb;" horiz-adv-x="1341" d="M184 583v888h147v-888q0 -158 6 -197q11 -87 51 -145.5t123 -98t167 -39.5q73 0 140 31t112 86t66 133q15 56 15 230v888h147v-888q0 -197 -38.5 -318.5t-154 -211.5t-279.5 -90q-178 0 -305 85t-170 225q-27 86 -27 310zM308 1583l297 257h139l290 -257h-180l-176 152 l-184 -152h-186z" />
<glyph unicode="&#xdc;" horiz-adv-x="1341" d="M184 583v888h147v-888q0 -158 6 -197q11 -87 51 -145.5t123 -98t167 -39.5q73 0 140 31t112 86t66 133q15 56 15 230v888h147v-888q0 -197 -38.5 -318.5t-154 -211.5t-279.5 -90q-178 0 -305 85t-170 225q-27 86 -27 310zM351 1700q0 48 34 82t82 34t82 -34t34 -82 t-34 -82t-82 -34t-82 34t-34 82zM759 1700q0 48 34 82t82 34t82 -34t34 -82t-34 -82t-82 -34t-82 34t-34 82z" />
<glyph unicode="&#xdd;" horiz-adv-x="1212" d="M63 1471h170l376 -606l370 606h170l-466 -768v-703h-145v703zM456 1587l218 308h215l-295 -308h-138z" />
<glyph unicode="&#xde;" horiz-adv-x="1212" d="M178 0v1471h147v-344h146q251 0 339 -22q126 -31 206.5 -127.5t80.5 -242.5t-78 -241.5t-215 -129.5q-100 -24 -374 -24h-105v-340h-147zM325 484l249 -3q151 0 221 28t110 89t40 137q0 75 -40 136t-105.5 87t-214.5 26h-260v-500z" />
<glyph unicode="&#xdf;" d="M162 0v995q0 226 43.5 322t143 157.5t234.5 61.5q177 0 285.5 -103t108.5 -259q0 -99 -50 -176t-139 -123q-49 -25 -137 -37q97 -15 149 -42q108 -57 169 -157t61 -231q0 -192 -117 -314t-300 -122q-123 0 -208 49v133q105 -49 188 -49q128 0 212.5 85.5t84.5 221.5 q0 151 -101.5 246t-293.5 101v157h32q139 0 223 73.5t84 178.5q0 99 -70 166t-178 67q-85 0 -156 -46.5t-103 -124.5q-24 -61 -24 -248v-982h-141z" />
<glyph unicode="&#xe0;" horiz-adv-x="1399" d="M107 547q0 235 165 402t397 167q134 0 242.5 -57t190.5 -171v200h138v-1088h-138v187q-88 -107 -197.5 -161t-239.5 -54q-231 0 -394.5 167.5t-163.5 407.5zM248 542q0 -115 59 -220t158.5 -163.5t213.5 -58.5q115 0 218 58t158.5 157t55.5 223q0 189 -124.5 316 t-306.5 127q-117 0 -216 -57.5t-157.5 -161.5t-58.5 -220zM424 1598h215l218 -308h-138z" />
<glyph unicode="&#xe1;" horiz-adv-x="1399" d="M107 547q0 235 165 402t397 167q134 0 242.5 -57t190.5 -171v200h138v-1088h-138v187q-88 -107 -197.5 -161t-239.5 -54q-231 0 -394.5 167.5t-163.5 407.5zM248 542q0 -115 59 -220t158.5 -163.5t213.5 -58.5q115 0 218 58t158.5 157t55.5 223q0 189 -124.5 316 t-306.5 127q-117 0 -216 -57.5t-157.5 -161.5t-58.5 -220zM549 1290l218 308h215l-295 -308h-138z" />
<glyph unicode="&#xe2;" horiz-adv-x="1399" d="M107 547q0 235 165 402t397 167q134 0 242.5 -57t190.5 -171v200h138v-1088h-138v187q-88 -107 -197.5 -161t-239.5 -54q-231 0 -394.5 167.5t-163.5 407.5zM248 542q0 -115 59 -220t158.5 -163.5t213.5 -58.5q115 0 218 58t158.5 157t55.5 223q0 189 -124.5 316 t-306.5 127q-117 0 -216 -57.5t-157.5 -161.5t-58.5 -220zM336 1285l297 257h139l290 -257h-180l-176 152l-184 -152h-186z" />
<glyph unicode="&#xe3;" horiz-adv-x="1399" d="M107 547q0 235 165 402t397 167q134 0 242.5 -57t190.5 -171v200h138v-1088h-138v187q-88 -107 -197.5 -161t-239.5 -54q-231 0 -394.5 167.5t-163.5 407.5zM248 542q0 -115 59 -220t158.5 -163.5t213.5 -58.5q115 0 218 58t158.5 157t55.5 223q0 189 -124.5 316 t-306.5 127q-117 0 -216 -57.5t-157.5 -161.5t-58.5 -220zM333 1421q91 97 225 97q64 0 153 -40q85 -39 134 -39q55 0 151 53l70 -97q-72 -52 -121.5 -70t-104.5 -18q-72 0 -148 37q-65 32 -83 37q-24 7 -52 7q-35 0 -66.5 -12.5t-91.5 -56.5z" />
<glyph unicode="&#xe4;" horiz-adv-x="1399" d="M107 547q0 235 165 402t397 167q134 0 242.5 -57t190.5 -171v200h138v-1088h-138v187q-88 -107 -197.5 -161t-239.5 -54q-231 0 -394.5 167.5t-163.5 407.5zM248 542q0 -115 59 -220t158.5 -163.5t213.5 -58.5q115 0 218 58t158.5 157t55.5 223q0 189 -124.5 316 t-306.5 127q-117 0 -216 -57.5t-157.5 -161.5t-58.5 -220zM380 1402q0 48 34 82t82 34t82 -34t34 -82t-34 -82t-82 -34t-82 34t-34 82zM788 1402q0 48 34 82t82 34t82 -34t34 -82t-34 -82t-82 -34t-82 34t-34 82z" />
<glyph unicode="&#xe5;" horiz-adv-x="1399" d="M107 547q0 235 165 402t397 167q134 0 242.5 -57t190.5 -171v200h138v-1088h-138v187q-88 -107 -197.5 -161t-239.5 -54q-231 0 -394.5 167.5t-163.5 407.5zM248 542q0 -115 59 -220t158.5 -163.5t213.5 -58.5q115 0 218 58t158.5 157t55.5 223q0 189 -124.5 316 t-306.5 127q-117 0 -216 -57.5t-157.5 -161.5t-58.5 -220zM486 1477q0 89 62.5 151.5t150.5 62.5t150.5 -62.5t62.5 -151.5q0 -88 -62 -150.5t-151 -62.5q-88 0 -150.5 62.5t-62.5 150.5zM588 1480q0 -45 32 -77.5t78 -32.5q45 0 77 32.5t32 77.5t-32 77.5t-77 32.5 q-46 0 -78 -32.5t-32 -77.5z" />
<glyph unicode="&#xe6;" horiz-adv-x="2370" d="M120 548q0 156 74 285.5t205 206t278 76.5q141 0 264 -69q87 -50 176 -157v198h128v-197q106 127 205 176t232 49q246 0 406.5 -164.5t159.5 -421.5h-979q4 -116 62 -219t153.5 -157t211.5 -54q125 0 224 61.5t173 195.5l120 -60q-74 -155 -213 -240t-314 -85 q-154 0 -275 69q-87 49 -166 153v-194h-128v201q-89 -111 -173 -159q-120 -70 -263 -70q-231 0 -396 167.5t-165 408.5zM263 544q0 -188 124 -313.5t305 -125.5t304.5 124.5t123.5 312.5q0 131 -53.5 228t-156 154t-223.5 57q-114 0 -213.5 -57t-155 -157.5t-55.5 -222.5z M1277 651h816q-28 114 -81 181t-141 108.5t-181 41.5q-95 0 -184.5 -42.5t-146.5 -113t-82 -175.5z" />
<glyph unicode="&#xe7;" horiz-adv-x="1325" d="M105 535q0 158 79.5 293.5t218.5 211.5t311 76q108 0 208.5 -33t170.5 -86t119 -135l-111 -69q-144 191 -393 191q-199 0 -330.5 -128t-131.5 -311q0 -119 60.5 -224t166 -163t236.5 -58q240 0 392 191l111 -73q-78 -117 -209.5 -181.5t-299.5 -64.5q-258 0 -428 164 t-170 399zM470 -350l22 69q64 -20 120 -20q75 0 105 18.5t30 46.5q0 17 -16.5 30t-45.5 13q-24 0 -70 -9l27 202h88l-17 -118q23 3 38 3q49 0 82 -30.5t33 -76.5q0 -66 -60 -112t-169 -46q-89 0 -167 30z" />
<glyph unicode="&#xe8;" horiz-adv-x="1331" d="M104 541q0 207 127 369q161 206 431 206q278 0 444 -211q118 -149 120 -372h-978q4 -190 121 -311.5t289 -121.5q83 0 161.5 29t133.5 77t119 155l118 -62q-58 -114 -134 -184t-171 -106.5t-215 -36.5q-266 0 -416 174.5t-150 394.5zM262 654h810q-28 112 -81.5 179 t-141.5 108t-185 41q-160 0 -275 -103q-84 -75 -127 -225zM390 1598h215l218 -308h-138z" />
<glyph unicode="&#xe9;" horiz-adv-x="1331" d="M104 541q0 207 127 369q161 206 431 206q278 0 444 -211q118 -149 120 -372h-978q4 -190 121 -311.5t289 -121.5q83 0 161.5 29t133.5 77t119 155l118 -62q-58 -114 -134 -184t-171 -106.5t-215 -36.5q-266 0 -416 174.5t-150 394.5zM262 654h810q-28 112 -81.5 179 t-141.5 108t-185 41q-160 0 -275 -103q-84 -75 -127 -225zM516 1290l218 308h215l-295 -308h-138z" />
<glyph unicode="&#xea;" horiz-adv-x="1331" d="M104 541q0 207 127 369q161 206 431 206q278 0 444 -211q118 -149 120 -372h-978q4 -190 121 -311.5t289 -121.5q83 0 161.5 29t133.5 77t119 155l118 -62q-58 -114 -134 -184t-171 -106.5t-215 -36.5q-266 0 -416 174.5t-150 394.5zM262 654h810q-28 112 -81.5 179 t-141.5 108t-185 41q-160 0 -275 -103q-84 -75 -127 -225zM303 1285l297 257h139l290 -257h-180l-176 152l-184 -152h-186z" />
<glyph unicode="&#xeb;" horiz-adv-x="1331" d="M104 541q0 207 127 369q161 206 431 206q278 0 444 -211q118 -149 120 -372h-978q4 -190 121 -311.5t289 -121.5q83 0 161.5 29t133.5 77t119 155l118 -62q-58 -114 -134 -184t-171 -106.5t-215 -36.5q-266 0 -416 174.5t-150 394.5zM262 654h810q-28 112 -81.5 179 t-141.5 108t-185 41q-160 0 -275 -103q-84 -75 -127 -225zM346 1402q0 48 34 82t82 34t82 -34t34 -82t-34 -82t-82 -34t-82 34t-34 82zM754 1402q0 48 34 82t82 34t82 -34t34 -82t-34 -82t-82 -34t-82 34t-34 82z" />
<glyph unicode="&#xec;" horiz-adv-x="410" d="M-71 1598h215l218 -308h-138zM135 0v1088h141v-1088h-141z" />
<glyph unicode="&#xed;" horiz-adv-x="410" d="M55 1290l218 308h215l-295 -308h-138zM135 0v1088h141v-1088h-141z" />
<glyph unicode="&#xee;" horiz-adv-x="410" d="M-158 1285l297 257h139l290 -257h-180l-176 152l-184 -152h-186zM135 0v1088h141v-1088h-141z" />
<glyph unicode="&#xef;" horiz-adv-x="410" d="M-115 1402q0 48 34 82t82 34t82 -34t34 -82t-34 -82t-82 -34t-82 34t-34 82zM135 0v1088h141v-1088h-141zM293 1402q0 48 34 82t82 34t82 -34t34 -82t-34 -82t-82 -34t-82 34t-34 82z" />
<glyph unicode="&#xf0;" horiz-adv-x="1341" d="M105 547q0 238 162.5 403.5t385.5 165.5q116 0 251 -65q-94 127 -213 235l-218 -90l-52 106l175 73q-96 80 -166 133h197q52 -37 102 -78l164 68l52 -107l-117 -47q217 -209 314 -406.5t97 -370.5q0 -166 -74.5 -304t-206.5 -214.5t-292 -76.5q-232 0 -396.5 167 t-164.5 408zM246 550q0 -189 124.5 -316.5t300.5 -127.5q114 0 213.5 57.5t155 158.5t55.5 226t-53.5 225t-150 154.5t-211.5 54.5q-156 0 -281 -98q-153 -121 -153 -334z" />
<glyph unicode="&#xf1;" horiz-adv-x="1249" d="M156 0v1088h140v-195q84 112 186 167.5t222 55.5q122 0 216.5 -62t139.5 -167t45 -327v-560h-139v519q0 188 -16 251q-25 108 -94 162.5t-180 54.5q-127 0 -227.5 -84t-132.5 -208q-20 -81 -20 -296v-399h-140zM258 1421q91 97 225 97q64 0 153 -40q85 -39 134 -39 q55 0 151 53l70 -97q-72 -52 -121.5 -70t-104.5 -18q-72 0 -148 37q-65 32 -83 37q-24 7 -52 7q-35 0 -66.5 -12.5t-91.5 -56.5z" />
<glyph unicode="&#xf2;" horiz-adv-x="1341" d="M104 541q0 226 150 392q165 183 417 183q251 0 416 -182q150 -166 150 -393q0 -228 -158.5 -398.5t-407.5 -170.5q-250 0 -408.5 170.5t-158.5 398.5zM247 538q0 -118 57 -220t154 -157.5t213 -55.5t213 55.5t154 157.5t57 220q0 183 -125.5 312t-298.5 129 q-174 0 -299 -129t-125 -312zM395 1598h215l218 -308h-138z" />
<glyph unicode="&#xf3;" horiz-adv-x="1341" d="M104 541q0 226 150 392q165 183 417 183q251 0 416 -182q150 -166 150 -393q0 -228 -158.5 -398.5t-407.5 -170.5q-250 0 -408.5 170.5t-158.5 398.5zM247 538q0 -118 57 -220t154 -157.5t213 -55.5t213 55.5t154 157.5t57 220q0 183 -125.5 312t-298.5 129 q-174 0 -299 -129t-125 -312zM521 1290l218 308h215l-295 -308h-138z" />
<glyph unicode="&#xf4;" horiz-adv-x="1341" d="M104 541q0 226 150 392q165 183 417 183q251 0 416 -182q150 -166 150 -393q0 -228 -158.5 -398.5t-407.5 -170.5q-250 0 -408.5 170.5t-158.5 398.5zM247 538q0 -118 57 -220t154 -157.5t213 -55.5t213 55.5t154 157.5t57 220q0 183 -125.5 312t-298.5 129 q-174 0 -299 -129t-125 -312zM308 1285l297 257h139l290 -257h-180l-176 152l-184 -152h-186z" />
<glyph unicode="&#xf5;" horiz-adv-x="1341" d="M104 541q0 226 150 392q165 183 417 183q251 0 416 -182q150 -166 150 -393q0 -228 -158.5 -398.5t-407.5 -170.5q-250 0 -408.5 170.5t-158.5 398.5zM247 538q0 -118 57 -220t154 -157.5t213 -55.5t213 55.5t154 157.5t57 220q0 183 -125.5 312t-298.5 129 q-174 0 -299 -129t-125 -312zM304 1421q91 97 225 97q64 0 153 -40q85 -39 134 -39q55 0 151 53l70 -97q-72 -52 -121.5 -70t-104.5 -18q-72 0 -148 37q-65 32 -83 37q-24 7 -52 7q-35 0 -66.5 -12.5t-91.5 -56.5z" />
<glyph unicode="&#xf6;" horiz-adv-x="1341" d="M104 541q0 226 150 392q165 183 417 183q251 0 416 -182q150 -166 150 -393q0 -228 -158.5 -398.5t-407.5 -170.5q-250 0 -408.5 170.5t-158.5 398.5zM247 538q0 -118 57 -220t154 -157.5t213 -55.5t213 55.5t154 157.5t57 220q0 183 -125.5 312t-298.5 129 q-174 0 -299 -129t-125 -312zM351 1402q0 48 34 82t82 34t82 -34t34 -82t-34 -82t-82 -34t-82 34t-34 82zM759 1402q0 48 34 82t82 34t82 -34t34 -82t-34 -82t-82 -34t-82 34t-34 82z" />
<glyph unicode="&#xf7;" horiz-adv-x="1124" d="M56 667v137h1012v-137h-1012zM461 261v205h201v-205h-201zM461 1005v202h201v-202h-201z" />
<glyph unicode="&#xf8;" horiz-adv-x="1337" d="M102 541q0 228 158 401.5t408 173.5q201 0 351 -120l116 137l92 -74l-125 -146q133 -161 133 -372q0 -228 -158.5 -398.5t-407.5 -170.5q-164 0 -299 82l-116 -137l-89 74l114 134q-177 171 -177 416zM245 538q0 -86 32.5 -168.5t89.5 -140.5l560 658q-118 92 -258 92 q-111 0 -209.5 -58.5t-156.5 -162t-58 -220.5zM459 158q103 -53 209 -53q116 0 213.5 55.5t154.5 157.5t57 219q0 144 -86 265z" />
<glyph unicode="&#xf9;" horiz-adv-x="1245" d="M138 564v524h141v-508q0 -186 20 -256q30 -100 114.5 -158t201.5 -58t198.5 56.5t112.5 148.5q21 63 21 267v508h143v-534q0 -225 -52.5 -339t-158 -178.5t-264.5 -64.5t-265.5 64.5t-159 180t-52.5 347.5zM346 1598h215l218 -308h-138z" />
<glyph unicode="&#xfa;" horiz-adv-x="1245" d="M138 564v524h141v-508q0 -186 20 -256q30 -100 114.5 -158t201.5 -58t198.5 56.5t112.5 148.5q21 63 21 267v508h143v-534q0 -225 -52.5 -339t-158 -178.5t-264.5 -64.5t-265.5 64.5t-159 180t-52.5 347.5zM472 1290l218 308h215l-295 -308h-138z" />
<glyph unicode="&#xfb;" horiz-adv-x="1245" d="M138 564v524h141v-508q0 -186 20 -256q30 -100 114.5 -158t201.5 -58t198.5 56.5t112.5 148.5q21 63 21 267v508h143v-534q0 -225 -52.5 -339t-158 -178.5t-264.5 -64.5t-265.5 64.5t-159 180t-52.5 347.5zM259 1285l297 257h139l290 -257h-180l-176 152l-184 -152h-186z " />
<glyph unicode="&#xfc;" horiz-adv-x="1245" d="M138 564v524h141v-508q0 -186 20 -256q30 -100 114.5 -158t201.5 -58t198.5 56.5t112.5 148.5q21 63 21 267v508h143v-534q0 -225 -52.5 -339t-158 -178.5t-264.5 -64.5t-265.5 64.5t-159 180t-52.5 347.5zM302 1402q0 48 34 82t82 34t82 -34t34 -82t-34 -82t-82 -34 t-82 34t-34 82zM710 1402q0 48 34 82t82 34t82 -34t34 -82t-34 -82t-82 -34t-82 34t-34 82z" />
<glyph unicode="&#xfd;" horiz-adv-x="1098" d="M39 1088h148l374 -838l363 838h149l-649 -1486h-148l210 480zM399 1290l218 308h215l-295 -308h-138z" />
<glyph unicode="&#xfe;" horiz-adv-x="1397" d="M158 -398v1906h139v-620q83 114 191 171t241 57q232 0 397 -167t165 -402q0 -240 -163.5 -407.5t-394.5 -167.5q-130 0 -239 54t-197 161v-585h-139zM287 538q0 -124 55.5 -223t159 -157t218.5 -58q113 0 212.5 58.5t158.5 163.5t59 220q0 116 -58.5 220t-157.5 161.5 t-216 57.5q-182 0 -306.5 -127t-124.5 -316z" />
<glyph unicode="&#xff;" horiz-adv-x="1098" d="M39 1088h148l374 -838l363 838h149l-649 -1486h-148l210 480zM239 1402q0 48 34 82t82 34t82 -34t34 -82t-34 -82t-82 -34t-82 34t-34 82zM647 1402q0 48 34 82t82 34t82 -34t34 -82t-34 -82t-82 -34t-82 34t-34 82z" />
<glyph unicode="&#x152;" horiz-adv-x="2445" d="M114 728q0 208 102.5 390t287.5 286t392 104q198 0 378 -103q143 -82 248 -219v285h838v-145h-689v-457h689v-145h-689v-579h689v-145h-838v285q-99 -126 -188 -190t-199 -98t-241 -34q-369 0 -598 273q-182 217 -182 492zM273 740q0 -265 183 -449.5t447 -184.5 q255 0 436 184.5t181 446.5q0 171 -83 314t-233 229t-313 86q-247 0 -432.5 -187t-185.5 -439z" />
<glyph unicode="&#x153;" horiz-adv-x="2329" d="M112 550q0 270 206 437q159 129 360 129q163 0 299 -88q99 -63 189 -200q84 133 178 196q136 92 313 92q233 0 395.5 -161.5t162.5 -387.5l-1 -36h-976q14 -223 139.5 -326.5t285.5 -103.5q130 0 234.5 67t163.5 193l119 -61q-94 -173 -221.5 -250.5t-304.5 -77.5 q-98 0 -188.5 30.5t-154.5 80.5t-145 164q-91 -137 -213.5 -206t-275.5 -69q-235 0 -400 168t-165 410zM251 542q0 -118 56.5 -220t159.5 -161.5t214 -59.5q110 0 210 58.5t154 157t54 220.5q0 188 -124 316t-303 128q-111 0 -209 -57.5t-155 -161.5t-57 -220zM1251 651h810 q-41 158 -149 243.5t-254 85.5q-157 0 -275 -100q-91 -77 -132 -229z" />
<glyph unicode="&#x178;" horiz-adv-x="1212" d="M63 1471h170l376 -606l370 606h170l-466 -768v-703h-145v703zM286 1700q0 48 34 82t82 34t82 -34t34 -82t-34 -82t-82 -34t-82 34t-34 82zM694 1700q0 48 34 82t82 34t82 -34t34 -82t-34 -82t-82 -34t-82 34t-34 82z" />
<glyph unicode="&#x2c6;" horiz-adv-x="1028" d="M151 1285l297 257h139l290 -257h-180l-176 152l-184 -152h-186z" />
<glyph unicode="&#x2dc;" horiz-adv-x="899" d="M83 1421q91 97 225 97q64 0 153 -40q85 -39 134 -39q55 0 151 53l70 -97q-72 -52 -121.5 -70t-104.5 -18q-72 0 -148 37q-65 32 -83 37q-24 7 -52 7q-35 0 -66.5 -12.5t-91.5 -56.5z" />
<glyph unicode="&#x2000;" horiz-adv-x="994" />
<glyph unicode="&#x2001;" horiz-adv-x="1989" />
<glyph unicode="&#x2002;" horiz-adv-x="994" />
<glyph unicode="&#x2003;" horiz-adv-x="1989" />
<glyph unicode="&#x2004;" horiz-adv-x="663" />
<glyph unicode="&#x2005;" horiz-adv-x="497" />
<glyph unicode="&#x2006;" horiz-adv-x="331" />
<glyph unicode="&#x2007;" horiz-adv-x="331" />
<glyph unicode="&#x2008;" horiz-adv-x="248" />
<glyph unicode="&#x2009;" horiz-adv-x="397" />
<glyph unicode="&#x200a;" horiz-adv-x="110" />
<glyph unicode="&#x2010;" horiz-adv-x="680" d="M65 492v122h550v-122h-550z" />
<glyph unicode="&#x2011;" horiz-adv-x="680" d="M65 492v122h550v-122h-550z" />
<glyph unicode="&#x2012;" horiz-adv-x="680" d="M65 492v122h550v-122h-550z" />
<glyph unicode="&#x2013;" horiz-adv-x="1024" d="M-12 508v129h1048v-129h-1048z" />
<glyph unicode="&#x2014;" horiz-adv-x="2048" d="M-12 508v129h2072v-129h-2072z" />
<glyph unicode="&#x2018;" horiz-adv-x="719" d="M286 959v172q0 129 17.5 202.5t67.5 174.5l78 -44q-38 -76 -51 -119t-20 -111h89v-275h-181z" />
<glyph unicode="&#x2019;" horiz-adv-x="719" d="M252 1233v275h181v-172q0 -129 -17.5 -202.5t-68.5 -174.5l-77 44q38 76 51 119t19 111h-88z" />
<glyph unicode="&#x201a;" horiz-adv-x="725" d="M255 0v275h181v-172q0 -129 -17.5 -202.5t-68.5 -174.5l-77 43q38 76 51 119.5t19 111.5h-88z" />
<glyph unicode="&#x201c;" horiz-adv-x="1028" d="M204 959v172q0 129 17.5 202.5t67.5 174.5l78 -44q-38 -76 -51 -119t-20 -111h89v-275h-181zM649 959v172q0 129 17 202.5t68 174.5l78 -44q-38 -76 -51 -119t-20 -111h89v-275h-181z" />
<glyph unicode="&#x201d;" horiz-adv-x="991" d="M181 1233v275h181v-172q0 -129 -17.5 -202.5t-68.5 -174.5l-77 44q38 76 51 119t19 111h-88zM626 1233v275h181v-172q0 -129 -17.5 -202.5t-68.5 -174.5l-77 44q38 76 51 119t19 111h-88z" />
<glyph unicode="&#x201e;" horiz-adv-x="1028" d="M198 0v275h181v-172q0 -129 -17.5 -202.5t-68.5 -174.5l-77 44q38 76 51 119t19 111h-88zM643 0v275h181v-172q0 -129 -17.5 -202.5t-68.5 -174.5l-77 44q38 76 51 119t19 111h-88z" />
<glyph unicode="&#x2022;" horiz-adv-x="1241" d="M313 746q0 127 90 217t217 90t217 -90t90 -217q0 -128 -90 -218t-217 -90t-217 90t-90 218z" />
<glyph unicode="&#x2026;" horiz-adv-x="2048" d="M218 96q0 52 36 88t87 36t87 -36t36 -88q0 -51 -36 -87.5t-87 -36.5t-87 36.5t-36 87.5zM901 96q0 52 36 88t87 36t87 -36t36 -88q0 -51 -36 -87.5t-87 -36.5t-87 36.5t-36 87.5zM1584 96q0 52 36 88t87 36q50 0 86.5 -36t36.5 -88q0 -51 -36.5 -87.5t-86.5 -36.5 q-51 0 -87 36.5t-36 87.5z" />
<glyph unicode="&#x202f;" horiz-adv-x="397" />
<glyph unicode="&#x2039;" horiz-adv-x="514" d="M75 542l222 546h148l-223 -546l223 -542h-148z" />
<glyph unicode="&#x203a;" horiz-adv-x="514" d="M70 0l223 545l-223 543h148l222 -543l-222 -545h-148z" />
<glyph unicode="&#x205f;" horiz-adv-x="497" />
<glyph unicode="&#x20ac;" d="M47 516l35 137h88q-4 56 -4 90q0 32 4 84h-123l37 138h113q77 251 284.5 396.5t476.5 145.5q65 0 160 -14l-37 -141q-58 12 -120 12q-199 0 -362.5 -106t-238.5 -293h639l-36 -138h-637q-7 -46 -7 -96q0 -30 5 -78h591l-36 -137h-525q69 -195 235.5 -305.5t379.5 -110.5 q65 0 139 17v-140q-64 -12 -150 -12q-281 0 -485.5 146t-277.5 405h-148z" />
<glyph unicode="&#x2122;" horiz-adv-x="2048" d="M12 1376v137h758v-137h-305v-725h-150v725h-303zM936 651v862h243l267 -597l282 597h238v-862h-150v710l-321 -710h-99l-311 710v-710h-149z" />
<glyph unicode="&#xe000;" horiz-adv-x="1090" d="M0 0v1090h1090v-1090h-1090z" />
<glyph unicode="&#xfb01;" horiz-adv-x="997" d="M84 965v123h142v48q0 157 35.5 232.5t110 121.5t179.5 46q132 0 215.5 -76t91.5 -196h-142q-29 138 -167 138q-62 0 -103.5 -27.5t-59.5 -73t-18 -165.5v-48h226v-123h-226v-965h-142v965h-142zM716 0v1088h142v-1088h-142z" />
<glyph unicode="&#xfb02;" horiz-adv-x="993" d="M92 964v124h143v36q0 169 33.5 243t109 121.5t174.5 47.5q100 0 175.5 -49t106.5 -122t31 -258v-1107h-143v1115q0 138 -15.5 185.5t-58 76.5t-98.5 29t-98.5 -30.5t-60.5 -85.5q-12 -40 -12 -202h224v-124h-224v-964h-144v964h-143z" />
</font>
</defs>
</svg>
