<?xml version="1.0" standalone="no"?>
<!DOCTYPE svg PUBLIC "-//W3C//DTD SVG 1.1//EN" "http://www.w3.org/Graphics/SVG/1.1/DTD/svg11.dtd" >
<svg xmlns="http://www.w3.org/2000/svg">
<metadata></metadata>
<defs>
<font id="little_daysregular" horiz-adv-x="1024" >
<font-face units-per-em="2048" ascent="1638" descent="-410" />
<missing-glyph horiz-adv-x="500" />
<glyph horiz-adv-x="2048" />
<glyph horiz-adv-x="2048" />
<glyph unicode="&#xd;" />
<glyph unicode=" " />
<glyph unicode="!" horiz-adv-x="497" d="M166 57q0 -29 19.5 -46t47.5 -17q29 0 48.5 17.5t19.5 45.5q0 29 -19.5 47.5t-48.5 18.5t-48 -18.5t-19 -47.5zM196 565q3 -129 7 -256q0 -16 10 -23t21.5 -6t20.5 9t9 24q-6 125 -8 251t5 252t25.5 251t53.5 246q4 14 -3 24.5t-18.5 13.5t-21.5 -2.5t-14 -19.5 q-39 -123 -57.5 -250t-25.5 -256t-4 -258z" />
<glyph unicode="&#x22;" horiz-adv-x="587" d="M92 1028v426q0 33 33 33t33 -33v-426q0 -33 -33 -33t-33 33zM336 1028v426q0 33 33 33t32 -33v-426q0 -33 -32 -33q-33 0 -33 33z" />
<glyph unicode="#" d="M172 647q0 -8 5.5 -16t17.5 -10l618 -72q12 -2 19.5 5t7.5 15q0 10 -5.5 18.5t-17.5 10.5l-618 72q-12 2 -19.5 -5.5t-7.5 -17.5zM215 909q0 -8 5.5 -16t17.5 -10l614 -66q12 -2 19.5 5t7.5 16q0 10 -5.5 18t-17.5 10l-614 66q-12 2 -19.5 -5t-7.5 -18zM287 383 q-2 -12 5 -19.5t16 -9.5t17.5 3t10.5 18l94 739q2 12 -5 19.5t-16.5 9.5t-17.5 -3.5t-10 -17.5zM586 346q-2 -12 5 -19.5t16 -9.5t17.5 3.5t10.5 17.5l98 774q2 12 -5 19.5t-16.5 9.5t-17.5 -3.5t-10 -17.5z" />
<glyph unicode="$" d="M166 444q0 -8 5 -15t15 -9h-12q12 -49 39 -84t63.5 -57.5t80.5 -34t92 -11.5l-11 -127q0 -12 7.5 -19t17.5 -7t17 6t7 18l11 134q57 6 110.5 27.5t94 56t65.5 81t25 103.5q0 53 -19.5 102t-53.5 87t-80 62.5t-97 30.5l35 426q68 -10 121 -52t69 -115q6 -18 23 -19 q10 0 17 7t7 18q0 6 -2 10q-20 92 -84.5 140t-146.5 59l6 86q0 12 -7.5 19t-17.5 7t-17 -6t-7 -18l-9 -84q-57 0 -112.5 -18.5t-99.5 -53.5t-71.5 -85t-29.5 -114v-10q0 -55 22.5 -97t61.5 -71t87 -48t101 -30l-36 -454h-9q-41 0 -78.5 8t-68.5 26.5t-51.5 49t-24.5 75.5 q0 25 -24 25h-4q-14 0 -20.5 -7t-6.5 -18zM172 420h2q-2 2 -2 8v-8zM266 971q1 30 15 61q6 45 29.5 79t57 57.5t74.5 36t84 12.5l-32 -426q-37 4 -77 18t-74 37.5t-55.5 54.5t-21.5 70zM502 289l37 442q14 -2 27.5 -3t27.5 -1q72 -23 108.5 -87.5t36.5 -133.5 q0 -186 -237 -217z" />
<glyph unicode="%" d="M143 1030q0 -43 18.5 -85t49.5 -75.5t69.5 -54t81.5 -20.5q37 0 73 18t63.5 48t45 68t17.5 79q0 55 -24.5 108t-71.5 86q-10 6 -19 6q-10 0 -17 -7t-7 -17q0 -8 10 -19q41 -25 59.5 -64.5t18.5 -84.5q0 -33 -10.5 -63.5t-29.5 -55.5t-48 -39t-66 -14h-4q-33 0 -61.5 16.5 t-49 43t-32.5 58t-12 64.5q0 27 13 56.5t34.5 54t50.5 41t57 16.5q47 0 78 -31q4 -4 14 -4t18.5 7.5t8.5 17.5t-12 20q-41 39 -105 39q-41 0 -79.5 -19.5t-61.5 -58.5q-37 -29 -53.5 -63.5t-16.5 -71.5zM254 264q0 -23 22 -22q12 0 23 12l555 917q4 4 4 15q0 23 -22 22 q-15 0 -23 -12l-555 -917q-4 -4 -4 -15zM551 438q0 -43 18.5 -85t49 -75.5t69.5 -54t82 -20.5q37 0 73 18.5t63.5 48t45 67.5t17.5 79q0 55 -24.5 108.5t-72.5 85.5q-10 6 -18 6q-10 0 -17.5 -7t-7.5 -17q0 -8 11 -19q41 -25 59.5 -64.5t18.5 -84.5q0 -33 -10.5 -63.5 t-30 -55t-48 -39t-65.5 -14.5h-4q-33 0 -61.5 16.5t-49 43t-33 58t-12.5 64.5q0 27 13.5 56.5t35 54t50 41t57.5 16.5q47 0 78 -31q4 -4 14 -4t18.5 7.5t8.5 17.5q-1 10 -13 20q-41 39 -104 39q-41 0 -80 -19.5t-61 -58.5q-37 -29 -53.5 -63.5t-16.5 -71.5z" />
<glyph unicode="&#x26;" horiz-adv-x="874" d="M-33 387q0 -78 34 -145.5t90 -119.5t128 -82t150 -30q98 0 191 47t159 119q59 -57 127.5 -96t154.5 -43q14 0 21.5 9t7.5 20q0 10 -7 19t-22 9q-76 16 -135 49t-110 80q90 121 114 277v8q0 14 -9 21.5t-19 7.5q-23 0 -29 -25q-4 -68 -29.5 -131.5t-66.5 -116.5 q-55 63 -102.5 139t-87.5 157t-74.5 162t-65.5 152q45 35 87 73t74 81t50 92t18 111q-14 104 -69 159.5t-121 55.5q-49 0 -81 -33t-51.5 -80t-26.5 -98t-7 -88q0 -66 15 -129t40 -129q-10 -6 -17 -13.5t-17 -13.5q-57 -43 -113.5 -93t-100.5 -107.5t-72 -126t-28 -148.5z M29 391q0 70 28.5 132.5t72.5 117.5t98.5 103.5t107.5 91.5q39 -111 97.5 -216.5t113.5 -203.5q29 -49 60.5 -99.5t72.5 -95.5q-66 -68 -148.5 -108.5t-173.5 -40.5q-66 0 -126 24.5t-105 67.5t-71.5 101.5t-26.5 125.5zM315 1157q0 59 16.5 115.5t57.5 105.5v2 q10 4 18.5 6.5t18.5 2.5q29 0 53.5 -15.5t43 -40t29.5 -55.5t11 -61q0 -12 -2 -25.5t-6 -24.5q-31 -76 -82 -133t-111 -106q-20 53 -33.5 111.5t-13.5 117.5z" />
<glyph unicode="'" horiz-adv-x="266" d="M92 1028v426q0 33 33 33t33 -33v-426q0 -33 -33 -33t-33 33z" />
<glyph unicode="(" horiz-adv-x="401" d="M57 598q0 217 76 395q41 98 99.5 175t136.5 132v3q6 6 20 6q33 0 33 -35q0 -17 -12 -25q-141 -100 -217 -284q-70 -164 -70 -369q0 -301 141 -528q6 -10 6 -19q0 -33 -32 -33q-16 0 -27 17q-154 242 -154 565z" />
<glyph unicode=")" horiz-adv-x="487" d="M57 39q0 8 11 22h-2q207 227 206 605q0 348 -176 632q-6 8 -6 19q0 33 35 33q16 0 27 -17q186 -297 186 -667q0 -401 -223 -650h-2q-10 -12 -23 -12q-33 0 -33 35z" />
<glyph unicode="*" d="M229 1028q0 -16 19 -22l231 -80l-166 -224q-6 -6 -6 -14q0 -25 27 -24q12 0 20 10l160 213l143 -228q8 -12 23 -12q23 0 22 23q0 10 -4 14l-147 234l219 102q14 6 14 22q0 10 -6 17.5t-16 7.5q-8 0 -12 -2l-215 -100l-5 249q0 12 -7 19.5t-17 7.5t-17.5 -7t-7.5 -20 l2 -239l-219 76q-4 2 -10 2q-10 0 -17.5 -7.5t-7.5 -17.5z" />
<glyph unicode="," horiz-adv-x="454" d="M102 92q0 63 64 64q29 0 57.5 -23.5t28.5 -52.5q0 -35 -31 -105q-34 -79 -63 -79q-35 0 -35 34q0 4 20 37q10 16 15.5 28.5t7.5 16.5l-2 6q-61 20 -62 74z" />
<glyph unicode="-" horiz-adv-x="851" d="M127 637q0 -8 7.5 -15.5t19.5 -7.5h542q12 0 19.5 7.5t7.5 15.5q0 10 -7 18.5t-20 8.5h-542q-12 0 -19.5 -8.5t-7.5 -18.5z" />
<glyph unicode="." horiz-adv-x="493" d="M82 57q0 29 19.5 47.5t48.5 18.5t48 -18.5t19 -47.5t-19.5 -46t-47.5 -17q-29 0 -48.5 17t-19.5 46z" />
<glyph unicode="/" horiz-adv-x="997" d="M57 31q0 6 6 18l836 1264q10 16 25 16q35 0 34 -33q0 -14 -6 -20l-835 -1264q-14 -14 -27 -14q-33 0 -33 33z" />
<glyph unicode="0" horiz-adv-x="1263" d="M66 705q0 293 153 507q150 211 375 211t375 -211q155 -216 155 -507t-155 -508q-150 -211 -375 -211t-375 211q-154 215 -153 508zM115 705q0 -281 141 -474q141 -197 338 -196q197 0 338 196q143 193 143 474t-143 473q-141 197 -338 196q-197 0 -338 -196 q-141 -195 -141 -473z" />
<glyph unicode="1" horiz-adv-x="878" d="M51 981q0 20 21 23h2q61 33 107 71.5t86 87.5t79 109.5t84 136.5l2 2q6 18 23 19q25 0 24 -27v-6q-2 -31 -2 -68v-82v-1181l8 -9h314q20 0 20 -24q0 -20 -22 -25h-678q-20 0 -21 25q0 20 25 24h293l8 9v1179l-6 8l-10 4l-9 -4q-8 -10 -14 -19t-12 -20 q-31 -45 -57.5 -82.5t-59.5 -70.5t-75 -58.5t-99 -46.5h-2q-6 -2 -10 -2q-18 0 -19 27z" />
<glyph unicode="2" horiz-adv-x="1251" d="M63 -45q0 10 27 37q799 737 799 1149q0 219 -266 219q-137 0 -273 -66q-158 -80 -157 -190q0 -102 151 -195q12 -6 12 -20q0 -27 -24 -27q-7 0 -15 4q-174 111 -174 238q0 143 187 231q150 74 293 74q131 0 219 -63q96 -72 96 -205q0 -387 -621 -1002l-2 -8l2 -6l11 -6 q55 12 110 12q72 0 226 -43q154 -41 235 -41q150 0 234 195q6 16 20 16q25 0 25 -25v-4q-102 -231 -279 -231q-74 0 -227 41q-152 43 -234 43q-86 0 -167 -33t-156 -104l-6 -4l-5 -7v3q-6 -6 -16 -7q-25 0 -25 25zM1178 229q0 2 2 4z" />
<glyph unicode="3" horiz-adv-x="1396" d="M111 381q0 164 122 250l5 6v-2q2 2 10 2q25 0 24 -27q0 -6 -18 -24q-94 -70 -94 -205q0 -68 39 -132.5t103.5 -113.5t149.5 -78.5t179 -29.5h6q117 0 221.5 48t183 130t125.5 188.5t47 222.5v11q0 127 -96 207q-92 80 -227 79q-111 0 -234 -53q-12 -6 -16 -6 q-20 0 -20 20q0 6 4 15q92 106 241 235q88 74 149.5 130.5t96.5 93.5l2 8l-2 12l-8 6h-744q-20 0 -20 27q0 20 22 24h836q23 0 23 -10q0 -35 -142 -170q-53 -45 -130 -112.5t-181 -161.5l-2 -8l2 -7l10 -6q57 12 113 13q150 0 258 -91q115 -96 115 -245v-17 q0 -127 -51.5 -240.5t-138.5 -201.5t-200.5 -139.5t-236.5 -51.5h-6q-109 0 -203 32t-164.5 87.5t-111.5 129t-41 155.5z" />
<glyph unicode="4" horiz-adv-x="1308" d="M63 582q0 10 3 14l327 776q8 18 21 19q27 0 26 -25q0 -2 -2 -6v-2q0 2 6 2l-6 -4h-2l-295 -707l2 -8l4 -6l9 -4q39 8 86 8q94 0 241 -45q92 -29 152.5 -44t89.5 -20l8 2l4 5l2 6v868q2 20 25 21q25 0 24 -21v-876l3 -7l4 -4l6 -2h22q193 0 336 193q6 8 19 8q27 0 26 -25 q0 -8 -6 -16q-160 -209 -375 -209h-28l-7 -2l-4 -4l-2 -6v-475q-2 -20 -24 -21q-25 0 -25 23v481l-2 6l-4 4l-4 2q-25 4 -83 20.5t-153 45.5q-145 43 -245 43q-76 0 -144 -23q-12 -4 -14 -4q-20 0 -21 19z" />
<glyph unicode="5" horiz-adv-x="1187" d="M66 264q0 66 61 139q59 72 123 72q23 0 22 -26q0 -12 -18 -21q-139 -47 -139 -164q0 -109 116 -182q100 -63 230 -64q231 0 383 152q154 154 153 385q0 164 -90 258t-252 94q-248 0 -512 -178q-10 -6 -20 -6q-18 0 -19 25v6q2 16 4.5 33.5t6.5 39.5q4 29 8 65t8 75 q0 6 1 11t1 11q6 45 12 98q4 16 5.5 33t3.5 33q12 86 20 149.5t12 110.5q2 20 25 21h819q20 0 21 -25q0 -23 -25 -25h-782l-6 -2l-5 -4l-2 -4q-10 -82 -24 -191.5t-33 -262.5q-2 -16 -4 -31t-4 -31q-2 -8 -2 -18q0 -8 -2 -17l4 -8l6 -4h8q248 145 475 145q184 0 288 -109.5 t104 -291.5q0 -254 -166 -420t-420 -166q-135 0 -256 70q-139 84 -139 225z" />
<glyph unicode="6" horiz-adv-x="1150" d="M66 473q0 293 190 545q72 92 178.5 189.5t251.5 197.5q8 4 16 4q27 0 27 -27q0 -6 -12 -18h2q-145 -100 -251 -194.5t-171 -186.5q-92 -117 -136 -244t-44 -266q0 -102 29.5 -185t86 -142.5t137.5 -92.5t185 -33q180 0 307 132q127 135 127 317q0 117 -64.5 185.5 t-183.5 68.5q-78 0 -146.5 -23.5t-127.5 -70.5t-99 -107.5t-59 -138.5q-6 -18 -24 -18q-27 0 -27 18q0 6 2 12q23 84 67 151.5t109 119.5q135 106 305 106q141 0 220 -83t79 -220q0 -209 -141 -350q-141 -147 -344 -148q-227 0 -360 138q-129 141 -129 364z" />
<glyph unicode="7" horiz-adv-x="1210" d="M66 1124q0 2 4 15v-2q123 244 315 243q35 0 91 -11t128 -32q147 -43 230 -43q137 0 262 88q4 2 8 4.5t10 2.5q23 0 23 -23q0 -10 -7 -18q-186 -287 -349 -625t-306 -735q-6 -16 -20 -17q-27 0 -27 23q0 4 2 8v2q135 365 279.5 677t304.5 576v11l-6 6l-7 2 q-86 -31 -167 -31q-76 0 -224 43q-72 20 -128 31.5t-97 11.5q-160 0 -272 -215q-8 -14 -21 -14q-27 0 -26 22z" />
<glyph unicode="8" horiz-adv-x="1134" d="M100 412q0 127 68 229q41 59 99.5 99t135.5 57l3 6l2 8l-7 6q-137 76 -153 213q-2 8 -2 17v16q0 111 88 199q104 109 235 108q66 0 125.5 -20.5t112.5 -55.5q123 -82 137 -207q0 -6 1 -12t1 -12q0 -86 -59.5 -160t-147.5 -115v-8v-8l6 -8q301 -98 332 -342q2 -10 2 -23 v-20q0 -164 -147 -279q-160 -125 -352 -125q-195 0 -320 91q-135 100 -156 286q-2 16 -3 30.5t-1 29.5zM152 408q0 -14 1 -27.5t3 -28.5q41 -328 417 -327q182 0 320 112q139 109 139 250v16q0 9 -2 19q-20 158 -194 254q-139 82 -330 82q-180 0 -273 -117 q-82 -104 -81 -233zM295 1055q0 -6 1 -12.5t1 -12.5q6 -51 34.5 -90t78.5 -74q92 -55 202 -55q113 0 201 84l2 6v-2q80 74 80 164q0 6 -1 12t-1 12q-12 94 -111 166q-92 66 -207 66q-53 0 -102 -22.5t-96 -71.5q-82 -82 -82 -170z" />
<glyph unicode="9" horiz-adv-x="1071" d="M66 1038q0 172 153 283q137 98 311 98q180 0 297 -112q119 -113 119 -295q0 -469 -592 -1006q-14 -10 -18 -10q-27 0 -27 27q0 10 8 16l5 6v-2q575 520 575 969q0 80 -27.5 145.5t-76 113.5t-116 73.5t-147.5 25.5q-160 0 -280 -88q-135 -98 -135 -244q0 -129 75 -217 q74 -92 197 -92q96 0 162.5 60.5t79.5 152.5q2 20 24 21q25 0 25 -23v-6q-6 -55 -30.5 -102.5t-63.5 -81t-89.5 -52t-107.5 -18.5q-139 0 -233 113q-88 106 -88 245z" />
<glyph unicode=":" horiz-adv-x="399" d="M123 57q0 29 19.5 47.5t47.5 18.5q29 0 48.5 -18.5t19.5 -47.5t-19.5 -46t-48.5 -17t-48 17t-19 46zM129 573q0 29 19.5 46.5t48.5 17.5t48 -17.5t19 -46.5t-19.5 -47t-47.5 -18q-29 0 -48.5 18t-19.5 47z" />
<glyph unicode=";" horiz-adv-x="399" d="M129 573q0 29 19.5 46.5t48.5 17.5t48 -17.5t19 -46.5t-19.5 -47t-47.5 -18q-29 0 -48.5 18t-19.5 47zM135 100q0 63 64 64q29 0 57.5 -23.5t28.5 -52.5q0 -35 -31 -104q-35 -80 -66 -80q-33 0 -32 35q0 4 18 38q20 33 25 43l-2 7q-61 20 -62 73z" />
<glyph unicode="?" horiz-adv-x="913" d="M57 1020q0 154 136 252q125 90 274 90q162 0 262 -96q100 -94 100 -258q0 -176 -147 -252l-111 -37q-41 -14 -80.5 -26.5t-80.5 -26.5q-135 -51 -136 -174v-17q4 -39 6.5 -62.5t2.5 -33.5v-6q0 -33 -33 -33t-33 33q0 12 -2 30.5t-4 38.5q-2 18 -3 35t-1 27q0 43 14 78 q43 102 185 151q59 20 118.5 39t118.5 37q121 59 121 199q0 133 -81 210.5t-216 77.5q-133 0 -234 -75q-111 -84 -110 -201q0 -61 70 -62q8 0 18 1.5t20 3.5q4 0 6.5 1t6.5 1q27 0 26 -35q0 -29 -27 -33t-50 -4q-135 0 -136 127zM242 45q0 43 43 43q45 0 45 -43 q0 -45 -45 -45q-43 0 -43 45z" />
<glyph unicode="@" d="M72 608q0 -76 23.5 -147.5t74.5 -126.5t129 -88t186 -33q102 0 198.5 36t174.5 105q10 10 10 19q0 10 -7 17t-17 7t-19 -6q-61 -66 -145 -98.5t-174 -32.5q-74 0 -143.5 21.5t-124 64.5t-88 106.5t-35.5 147.5v10q0 90 32.5 170t90 140.5t134.5 96.5t167 36 q63 0 116.5 -24.5t91 -67.5t59 -98.5t21.5 -117.5q0 -68 -33.5 -122t-107.5 -76q-23 20 -24 49q6 14 9 31.5t5 36.5q0 12 1 25t1 26v2v4q0 2 -1 4t-1 4v2q0 6 -2 10q-12 74 -59.5 107t-106.5 33q-41 0 -83 -15.5t-76 -42t-54.5 -64.5t-20.5 -83q0 -47 17.5 -83t47.5 -59.5 t65.5 -36t72.5 -12.5q41 0 81 14.5t69 45.5q10 -23 31.5 -38t56.5 -18q86 37 124 106t38 146q0 63 -23 128t-64.5 117t-99 84t-125.5 32q-31 0 -57 -6h-16q-96 0 -174 -43t-132.5 -113t-84 -157t-29.5 -175zM330 676q0 59 44 107t122 48q47 0 88 -26.5t45 -79.5v-2 q-10 -18 -12.5 -46.5t-2.5 -51.5q-18 -41 -52 -67t-81 -26q-74 0 -112.5 42t-38.5 102z" />
<glyph unicode="A" horiz-adv-x="1632" d="M12 410q0 -78 33 -152t90.5 -133t137 -95t173.5 -36h21q76 2 175 42t197.5 114.5t184.5 182t139 247.5v-422q0 -31 16.5 -61.5t42 -53.5t56.5 -37t59 -14h11q45 0 88 23.5t80.5 62.5t70.5 89t62 101v11q0 8 -8.5 17t-18.5 9q-6 0 -12 -3t-8 -13q-20 -39 -45 -78 t-52.5 -72t-57.5 -56.5t-58 -33.5q-10 -2 -18.5 -4t-14.5 -2q-25 0 -49.5 9t-45 24.5t-34 38t-13.5 47.5v1147q0 8 -4 18t-20 12q-45 8 -87 10.5t-83 2.5q-154 0 -288 -41t-246.5 -111t-199.5 -163t-148.5 -198.5t-93.5 -215t-32 -213.5zM63 403q0 98 30 204t88.5 205 t141.5 188.5t189 157t234 106.5t276 39q35 0 68.5 -3.5t72.5 -7.5q-2 -197 -3 -304t-1 -159v-57v-8q-31 -170 -112.5 -303t-185 -224.5t-211 -140.5t-187.5 -53h-14q-82 0 -153 31.5t-122 83t-81 116t-30 129.5z" />
<glyph unicode="B" horiz-adv-x="1071" d="M10 1337l2 -1290q0 -25 25 -24q8 0 17 7t9 17l-4 799q27 59 68 141t99.5 156t137 125t181.5 51q92 0 158.5 -26.5t111.5 -69.5t66.5 -95.5t21.5 -103.5q0 -63 -23.5 -129t-76.5 -123q-57 35 -123 48.5t-131 13.5q-16 0 -36.5 -8.5t-38 -21.5t-30 -31.5t-12.5 -41.5 q0 -29 17.5 -48t42 -31.5t50 -17.5t44.5 -5q131 0 219 80q86 -51 135 -130t49 -184q0 -72 -35.5 -136t-96 -113.5t-138.5 -78t-160 -28.5h-8q-55 0 -109.5 14.5t-102.5 39t-87 55t-64 65.5q-4 12 -20 12q-8 0 -14 -6q-8 -8 -9 -20q0 -8 5 -15q27 -37 69.5 -72.5t96 -63.5 t113.5 -44t122 -16h8q92 0 178 31.5t153.5 87t108.5 129t41 155.5q0 123 -54 213t-140 141q59 59 83.5 133t24.5 146q0 61 -26.5 122.5t-77.5 112t-128 82t-177 31.5q-96 0 -171 -40t-134.5 -99t-103.5 -131t-77 -137v372q0 27 -22 27q-27 0 -27 -27zM481 731 q0 20 24.5 34.5t65.5 14.5t88.5 -9t102.5 -36q-70 -57 -176 -57q-31 0 -67 15.5t-38 37.5z" />
<glyph unicode="C" horiz-adv-x="1280" d="M43 647q0 -154 56.5 -277.5t151.5 -212.5t219 -137.5t259 -48.5h6q186 2 323.5 82t237.5 211q6 4 7 15q0 6 -3.5 9t-5.5 7q-4 4 -9 5t-9 1q-6 0 -11 -1t-10 -11q-90 -115 -218 -190.5t-302 -78.5q-127 0 -243.5 44.5t-204.5 126t-141.5 196.5t-53.5 254q0 129 56.5 251 t148.5 217t209 152.5t237 57.5q84 0 138.5 -12.5t92.5 -33t63.5 -48t49.5 -58.5q2 -8 17 -8q4 0 9 1t9 5q2 2 5 6.5t3 10.5q0 4 -1 8t-1 6q-31 37 -60.5 68.5t-71.5 55t-102 38t-151 14.5q-133 0 -259 -62.5t-224 -164t-157.5 -231.5t-59.5 -267z" />
<glyph unicode="D" horiz-adv-x="1359" d="M12 895q0 -27 15 -33q14 0 21 4t15 13q39 80 97.5 159.5t134.5 143t168 103.5t196 40q125 0 235 -55.5t190.5 -147.5t128 -208.5t47.5 -239.5q0 -111 -35 -223.5t-97.5 -204.5t-149.5 -150.5t-190 -60.5q-57 0 -115.5 24.5t-115.5 55.5q-25 12 -48.5 23.5t-47.5 23.5 q33 70 50 149.5t17 151.5q0 59 -6 117.5t-12 115.5q-6 53 -11 105.5t-5 99.5q2 78 26.5 158t71.5 115q10 2 12 8t2 12t-2 12q-10 14 -24 15q-8 0 -15 -7q-33 -20 -55.5 -56t-36.5 -80t-21.5 -90t-9.5 -87q0 -47 6.5 -101.5t12.5 -109.5q6 -57 11 -115.5t5 -111.5 q0 -61 -13 -137t-50 -144q-84 41 -150 41q-25 -2 -52.5 -12t-51 -28.5t-39 -42t-15.5 -50.5q0 -37 15.5 -58.5t39 -32.5t48.5 -15t43 -4q55 0 101 36.5t83 98.5l13 -4q16 -8 32.5 -16.5t32.5 -18.5q61 -35 127 -62.5t147 -27.5q119 0 216.5 65.5t166 166.5t105.5 222t37 234 q-2 131 -52.5 257t-138.5 224t-206.5 158.5t-256.5 60.5q-115 0 -215 -43t-183 -110.5t-146.5 -153.5t-102.5 -172zM156 88q0 31 35.5 56.5t72.5 25.5q29 0 60.5 -7t66.5 -26q-29 -55 -63.5 -79.5t-75.5 -24.5t-68.5 12t-27.5 43z" />
<glyph unicode="E" horiz-adv-x="1230" d="M12 465q0 -106 70 -195.5t175 -154t230 -101.5t236 -37q76 0 153.5 23t148.5 60.5t130 89t98 110.5q0 4 1 8t1 6q0 16 -14 25q-2 2 -10 2q-20 0 -25 -14q-37 -53 -91 -100.5t-118.5 -83t-135 -56t-138.5 -20.5q-100 0 -216 33.5t-214 93t-164 139.5t-66 172 q0 72 40 149.5t112 135.5q135 -113 307 -113q33 0 74 9t76 28.5t59.5 49.5t24.5 69t-25.5 66.5t-62.5 45t-77 24.5t-69 7q-72 0 -152.5 -31t-152.5 -88q-57 53 -79.5 103.5t-22.5 97.5q0 63 45 120.5t113.5 99.5t150.5 66.5t154 24.5q80 0 139 -10t103 -27.5t77 -39 t61 -46.5q10 -10 15 -10q4 0 8 2l8 4q10 14 10 25q0 4 -10 14q-31 29 -67.5 54.5t-85 44t-111.5 29.5t-147 11q-76 0 -166 -27.5t-167 -74.5t-129.5 -113.5t-52.5 -146.5q2 -66 32 -126.5t81 -107.5q-68 -66 -116 -148.5t-48 -170.5zM258 780q76 59 142.5 83t121.5 24 q29 0 61.5 -6.5t60.5 -18.5t45.5 -29.5t17.5 -39.5q0 -23 -17.5 -41.5t-45.5 -32.5t-60.5 -22.5t-61.5 -8.5q-55 0 -116.5 17.5t-147.5 74.5z" />
<glyph unicode="F" horiz-adv-x="1167" d="M12 975q0 -43 15.5 -91t45 -90t70.5 -69t93 -27h8q29 0 56.5 8.5t57.5 24.5q14 4 15 25q0 4 -2 10q-8 14 -21 14q-10 0 -12 -2q-53 -28 -97 -28h-3q-41 0 -74 22.5t-55.5 56t-34 72.5t-11.5 74q0 102 32 164.5t81 96.5t107.5 45t111.5 11q76 0 153 -16t154 -39 q33 -12 74 -20l-2 -527q-92 0 -154.5 -23.5t-105.5 -101.5q-4 -6 -4 -14q0 -12 12 -25h17q6 0 18 13q41 72 97 89q38 12 79 12q20 0 41 -3v-254q0 -80 -29.5 -144.5t-79 -110.5t-113 -70.5t-130.5 -24.5q-49 0 -99.5 15t-95.5 48t-84 84t-65 125q-10 14 -25 14 q-23 -8 -22 -24v-8q59 -160 168.5 -232.5t228.5 -72.5q74 0 145.5 25.5t127 76.5t89 126t33.5 173v250q6 0 25.5 -2t41 -4t40 -4t24.5 -2q63 0 103 22q12 4 12 21q0 6 -2 12q-10 14 -20 14t-17 -6q-31 -14 -76 -14q-31 0 -64.5 4t-66.5 8l6 520q47 -10 97.5 -16t109.5 -6 q123 0 219.5 22.5t188.5 67.5q12 12 12 22v11q-12 16 -24 16q-6 0 -9 -2q-88 -41 -179 -64.5t-208 -23.5q-78 0 -154.5 16.5t-154.5 39t-159 40.5t-173 18q-57 0 -123.5 -13t-124 -53t-96.5 -111.5t-39 -190.5z" />
<glyph unicode="G" horiz-adv-x="1591" d="M12 422q2 -115 42 -193.5t102.5 -127t139.5 -69t153 -20.5q113 0 219 46t198 125t164 184.5t115 224.5l4 -639q-94 -51 -173 -98.5t-136.5 -98.5t-89 -106.5t-31.5 -122.5q0 -43 17.5 -90t47 -87t69.5 -66.5t85 -26.5h2q68 0 117 27.5t80.5 69.5t46 92t14.5 97v377 q86 47 153.5 90t119 84t87 84t56.5 90q2 4 2 11q0 14 -17 26h-6q-8 0 -16 -3t-10 -13q-37 -90 -132.5 -160t-236.5 -147l-6 1323q0 14 -10.5 20t-24.5 7t-27.5 0t-19.5 1q-113 0 -237.5 -27.5t-246.5 -82t-232.5 -133t-195.5 -180t-135.5 -224.5t-50.5 -264zM63 422 q0 133 47.5 248.5t127 211t185 170t221.5 126t235.5 78t228.5 26.5h16t19 -4v-479v-8q-18 -141 -83 -272.5t-159 -233t-211 -162t-241 -60.5q-72 0 -141.5 18.5t-123 60.5t-87.5 111t-34 169zM770 -473q0 57 30.5 106.5t82 93.5t120 85t146.5 84v-347q0 -41 -12.5 -85 t-37 -78.5t-64.5 -57t-95 -22.5q-31 0 -61.5 20.5t-55 53t-39 71.5t-14.5 76z" />
<glyph unicode="H" horiz-adv-x="1644" d="M10 1085q0 -51 29 -92t70 -68.5t91 -43t93 -15.5q25 0 33 8.5t8 18.5q0 23 -43 22q-39 0 -79 13.5t-73 36t-54.5 53.5t-21.5 67q0 43 21.5 83t57.5 72t80 50.5t91 18.5q41 0 77 -7.5t73 -17.5q39 -10 78 -16t90 -6q39 0 83 6t97 22l-47 -162q-16 -53 -26.5 -105 t-14.5 -108q0 -16 -1 -32.5t-1 -40.5v-62v-90q-80 -37 -150.5 -83t-123 -104.5t-83 -132t-30.5 -167.5q2 -37 18.5 -77t43 -73t62.5 -54.5t77 -21.5h2q49 0 95 27t83 68t59.5 91t22.5 97q0 45 -4.5 91t-8.5 93l-14 211l80 33l94 31v-113q2 -324 118 -474t314 -150 q49 0 93 29.5t82 73.5t68 93t46 88q4 2 4 8q0 10 -8 18.5t-19 8.5q-6 0 -12 -5t-10 -9q-18 -39 -45 -83t-58.5 -82t-67.5 -63.5t-73 -25.5q-84 0 -153.5 31.5t-120.5 100t-80 177.5t-29 264l2 131q147 51 257 97.5t180.5 94.5t105.5 102t35 122q-2 41 -22.5 83t-54.5 77 t-75 56.5t-84 21.5q-90 -2 -159.5 -37t-118.5 -109t-78 -189.5t-35 -277.5q-29 -10 -65.5 -23.5t-112.5 -45.5q0 92 1 133t5 71q8 78 28.5 156t43.5 160q8 25 15 47t16 47v6q0 8 -8.5 16.5t-18.5 8.5h-6q-72 -23 -124 -32t-93 -9t-75 6t-69 14q-37 10 -76.5 17.5t-93.5 7.5 q-53 0 -106 -22.5t-97 -59.5t-72 -86t-28 -105zM387 203q0 145 70.5 237t187.5 154l76 39q6 -80 10 -123t8 -78q4 -47 6.5 -89t2.5 -79q0 -41 -18.5 -83t-49.5 -76.5t-68.5 -56t-76.5 -21.5q-29 0 -54.5 16t-47 42t-34 56.5t-12.5 61.5zM999 793q6 150 32 253t70 168.5 t103 95t133 29.5q33 0 66 -16t58.5 -43t42 -60.5t16.5 -66.5q0 -63 -37 -111.5t-104.5 -89.5t-164 -78.5t-215.5 -80.5z" />
<glyph unicode="I" horiz-adv-x="1150" d="M12 1030q0 -43 18.5 -93t51.5 -93t79 -71t101 -28q20 0 38.5 4.5t39.5 10.5q18 8 18 26v11q-10 14 -26 14h-6q-16 -8 -31.5 -10t-30.5 -2q-43 0 -80 21.5t-63.5 55t-42 74.5t-15.5 80q0 80 30 134.5t77 89t105.5 51t117.5 18.5q53 0 105.5 -18.5t105.5 -40.5 q55 -25 113.5 -43.5t120.5 -18.5q35 0 70.5 6t70.5 23q-16 -57 -21.5 -122t-5.5 -132q0 -74 5.5 -149.5t11.5 -149.5q4 -61 10 -118.5t6 -108.5q0 -76 -31.5 -152t-89 -136.5t-135.5 -98t-170 -37.5q-78 0 -148.5 17t-131 53t-104.5 88.5t-66 121.5q-4 6 -10.5 12.5 t-12.5 6.5q-27 -8 -27 -25q23 -76 70 -135.5t108.5 -101t131 -64.5t139.5 -23h51q100 0 188.5 40t152 106.5t99 150.5t35.5 170v7q0 59 -4 122.5t-8 128.5q-4 72 -9 145t-5 144q0 78 8 152t31 139v8q0 10 -7.5 18.5t-17.5 8.5q-8 0 -14 -6v2q-47 -31 -90.5 -43.5 t-81.5 -12.5q-55 0 -108.5 16.5t-107 39t-109.5 41t-118 18.5q-63 0 -130.5 -18.5t-123 -58.5t-91.5 -103.5t-36 -155.5v-6z" />
<glyph unicode="J" horiz-adv-x="1464" d="M12 1038q0 -61 30 -106t73 -76t92 -45t90 -14h6q23 0 23 24q0 10 -8.5 18.5t-18.5 8.5h-10q-35 0 -74 12t-72.5 37t-56.5 59.5t-23 81.5q0 57 20.5 109.5t54.5 92.5t79 63.5t92 27.5h25q51 0 106.5 -12t114.5 -29q63 -16 129 -31.5t133 -15.5q51 0 98.5 10.5t94.5 34.5 l10 4l-14 -180q-18 -207 -19 -416q0 -123 4 -244.5t8 -244.5q2 -59 2 -117q0 -57 5 -117v-28l-88 -54q-72 -41 -133.5 -85t-106.5 -95t-71.5 -112.5t-26.5 -139.5q2 -43 22.5 -86t54 -77.5t75.5 -57t85 -22.5q47 2 92 30.5t79 71.5t54.5 95t20.5 102v6l-8 389l41 22 q111 66 212 144t179 188q0 2 2 5t2 5q0 14 -14 25q-6 2 -13 2q-6 0 -12 -3t-8 -5q-68 -102 -170.5 -178t-212.5 -142h2l-8 -2v6q-4 160 -8.5 322t-4.5 322q0 180 7.5 358t25.5 358q0 10 -8 18.5t-18 8.5q-2 0 -7.5 -2t-7.5 -2q-57 -35 -110.5 -48.5t-102.5 -13.5 q-59 0 -120.5 12.5t-120.5 28.5q-61 16 -120 28.5t-122 12.5h-29q-59 -4 -112.5 -31.5t-94.5 -71.5t-65.5 -104.5t-24.5 -128.5v-6zM633 -535q0 68 25.5 121.5t70.5 99.5t104.5 86t124.5 78l48 29l8 -358q0 -43 -18.5 -88t-46 -81t-63.5 -59.5t-69 -23.5t-65.5 16.5t-59 44 t-43 61.5t-16.5 68v6z" />
<glyph unicode="K" horiz-adv-x="1812" d="M10 1139q0 -51 26.5 -94.5t67.5 -75t89.5 -49t91.5 -17.5h24q20 8 21 33q-6 20 -31 20h-16q-37 0 -75 14.5t-71 39t-53.5 57.5t-20.5 72v2q0 37 19.5 71.5t51.5 62.5t70 45t75 17q45 0 91 -8t93 -18q49 -10 97 -19.5t99 -9.5q35 0 68 5t68 18l14 6l-6 -19 q-53 -117 -71.5 -227.5t-18.5 -218.5v-55q-39 -14 -63.5 -37t-24.5 -60v-4q0 -41 30.5 -59.5t71.5 -24.5v-10q4 -53 8 -107.5t4 -101.5q0 -31 -3 -58.5t-7 -54.5v5q-8 -43 -25.5 -84t-42 -73t-55.5 -51.5t-63 -21.5q-31 0 -60.5 15.5t-52 40t-39 57.5t-18.5 69q0 23 -23 23 h-4q-23 0 -22 -23v-4q2 -45 21.5 -86t49 -72.5t66.5 -50t78 -18.5h4q47 0 86 24.5t69.5 63.5t51 85t30.5 93q6 35 8.5 73t2.5 79t-2.5 87t-6.5 95h41h23q84 0 155 78q76 -63 105 -154.5t47 -187.5q14 -66 29.5 -127.5t47.5 -109.5t85 -77.5t143 -29.5h6q57 0 112.5 23.5 t102.5 62.5t86 88t68 100v8q0 12 -14 27h-11q-6 0 -13 -2t-9 -12q-25 -47 -59.5 -91t-76.5 -78t-89.5 -55.5t-96.5 -21.5q-76 0 -121 24.5t-71.5 65.5t-40.5 97.5t-27 119.5q-10 47 -21.5 96.5t-29.5 97.5t-46 93t-71 82l11 12q41 47 77.5 106.5t69.5 118.5l18 35v-4 q41 70 82 133.5t82 112.5t83 77.5t89 28.5h6q25 0 25 27v2q0 6 -7 13t-18 7h-6q-59 0 -111.5 -33.5t-98.5 -87t-88 -121t-81 -134.5v2q-8 -10 -14 -22.5t-12 -24.5q-39 -63 -73 -118.5t-62 -86.5l-15 -15q-25 18 -55.5 32t-60.5 24q-14 4 -27.5 5t-34.5 1q-10 0 -21.5 -1 t-19.5 -1v35q0 119 21.5 246.5t89.5 265.5q2 2 2 12t-8.5 16t-16.5 6q-10 0 -16 -6v4q-47 -29 -92 -40t-88 -11q-45 0 -88 8.5t-91 18.5q-51 10 -102 18t-106 8q-45 0 -92.5 -20t-86.5 -55t-64.5 -79t-25.5 -93zM674 694v2q0 31 41 43q0 -18 2 -40t4 -42q-47 10 -47 37z M774 756q8 2 17 2h18q12 0 25.5 -1t27.5 -5q27 -10 51.5 -20.5t47.5 -22.5q-29 -29 -57.5 -42.5t-57.5 -17.5h-66q-6 51 -6 107z" />
<glyph unicode="L" horiz-adv-x="1341" d="M12 158q0 -31 16.5 -60.5t41 -53.5t55.5 -37t61 -13h2q78 4 149 55t109 127l15 29l26 -12l66 -32t63 -32q90 -49 179.5 -89t189.5 -40q123 0 217 78t160 196q2 4 2 13q0 10 -4 13t-10 7l4 -2q-6 4 -17 4q-6 0 -13 -2t-9 -12q-57 -111 -141 -176.5t-189 -69.5 q-86 0 -170 38t-174 85q-35 18 -69.5 36.5t-73.5 35.5l-17 8l13 41q2 10 3 20.5t1 20.5q0 4 2 10t2 10v21q0 78 -11.5 154.5t-27.5 152.5q-12 72 -23.5 143.5t-11.5 143.5q0 63 34 127.5t87 117t119.5 84t132.5 31.5q45 0 96 -15.5t96 -39t75 -54t30 -61.5v-6q0 -25 24 -25 q8 0 17.5 7.5t9.5 17.5v6q0 45 -36 85t-88 69.5t-111.5 47t-108.5 17.5h-4q-74 0 -148.5 -35.5t-136 -93t-99.5 -131.5t-38 -147v-2q0 -80 10 -154t24.5 -145.5t25 -146t10.5 -148.5v-21q0 -27 -7 -53v4l-8 -33l-35 17q-96 45 -211 45q-31 -2 -62.5 -17.5t-56 -40t-41 -54 t-16.5 -60.5v-4zM63 158q0 23 11.5 44t30 38.5t41 29t44.5 11.5q49 0 100.5 -9.5t100.5 -31.5l23 -15l-15 -28q-31 -66 -90.5 -108t-120.5 -46h-2q-23 0 -44 10t-38.5 26.5t-29 37t-11.5 41.5z" />
<glyph unicode="M" horiz-adv-x="2213" d="M10 909q0 -27 21 -30h8q4 0 11 3t9 13q20 92 57.5 172t82.5 138.5t94 92t92 33.5q47 0 70.5 -56t33.5 -149q6 -47 7.5 -96t1.5 -96v-895q0 -25 26 -25q25 0 25 25v721q0 4 2 6q37 100 82 203.5t99 187.5t120 136.5t141 52.5h2q59 0 88 -56.5t39 -148.5q2 -31 4 -62.5 t2 -62.5q0 -35 -2 -65.5t-2 -61.5v-137l9 -703q-1 -22 24 -22q10 0 18.5 6t8.5 20l-10 699l4 4q0 2 2 4q31 94 71.5 197.5t98 189.5t129 141t163.5 55q27 0 51.5 -19t43 -49t30 -65.5t11.5 -68.5v-955q0 -31 14 -64.5t37.5 -60t54.5 -45t66 -18.5h6q51 0 97 26.5t83 66.5 t63.5 87t36.5 90v11q0 12 -18 22h-8q-6 0 -13.5 -5t-9.5 -11q-12 -39 -34.5 -81t-53.5 -77t-67.5 -57.5t-75.5 -22.5h-6q-23 0 -45.5 13.5t-40 33t-27.5 44t-10 48.5v961q0 37 -12.5 80t-36 79.5t-57 61.5t-76.5 25h-3q-90 0 -161.5 -43t-129 -112t-100.5 -154t-73 -171 q0 16 1 33t1 35q0 41 -2 82t-7 82q-4 49 -15 95t-31.5 82t-52.5 56.5t-79 20.5q-78 -2 -142.5 -45t-119.5 -113t-100 -158t-82 -176v23q0 47 -1 98t-9 100q-4 49 -13.5 94.5t-28 80t-46 56t-66.5 21.5q-55 0 -113.5 -37.5t-109.5 -102t-91 -150.5t-61 -181z" />
<glyph unicode="N" horiz-adv-x="1603" d="M10 922q0 -6 5 -13.5t12 -9.5h10q14 0 22 14q27 68 63 142.5t81 137t95 103.5t103 41q41 0 76 -129q18 -61 27.5 -129.5t9.5 -117.5l-4 -232v-10l-6 -678q0 -23 24 -23q8 0 17.5 6.5t9.5 16.5l4 678q27 123 69 234.5t98 196.5t128 136t160 51h2q23 0 43 -15t36.5 -37.5 t27 -50.5t10.5 -54l-3 -987q0 -37 19.5 -71t49.5 -60.5t65.5 -43t70.5 -16.5t76 22.5t80 60.5t73.5 87t59.5 102v11q0 14 -14 22h-8q-6 0 -14.5 -2t-12.5 -12q-23 -51 -52.5 -95t-63.5 -76t-66.5 -50.5t-57.5 -18.5q-27 0 -53.5 12.5t-48 32t-35.5 45t-14 50.5v987 q0 31 -12.5 67.5t-36 68.5t-54 53.5t-67.5 21.5q-82 -2 -150.5 -40t-125 -101.5t-100.5 -148.5t-75 -179v39q0 57 -9 127.5t-26 134.5q-8 31 -19 60.5t-26.5 54t-36 39t-45.5 14.5q-70 -2 -130 -49.5t-109 -116t-87 -148.5t-63 -147l4 4q-6 -6 -6 -12z" />
<glyph unicode="O" horiz-adv-x="1456" d="M12 688q2 -143 52.5 -269t136.5 -219.5t201.5 -147.5t248.5 -54h6q131 0 246 55.5t201 148.5t135 219t49 269v6q-2 106 -29.5 200.5t-78.5 180.5q80 29 154.5 78t138.5 127q6 6 6 14q0 6 -3 11.5t-6 9.5q-4 4 -9 5t-9 1q-6 0 -11 -1t-9 -11l4 2q-66 -72 -137.5 -119 t-147.5 -74q-78 111 -189.5 179.5t-246.5 80.5q-2 4 -4 4h-2h-2q-14 0 -26.5 1t-27.5 1h-6q-131 0 -246.5 -55t-201.5 -149.5t-136.5 -220t-50.5 -267.5v-6zM66 688v6q0 131 46 248t125.5 204t185 138t224.5 53h19q-14 -27 -19.5 -50t-5.5 -46q0 -27 8 -48.5t23 -43.5 q31 -43 83 -69.5t122 -37.5h-5q10 -4 19 -4h20t17.5 -1t17.5 -1h8q41 0 85 5.5t91 17.5q47 -78 76 -169t33 -194v-6q0 -133 -46 -249.5t-126 -203.5t-185.5 -138.5t-224.5 -51.5h-6q-121 0 -227.5 50t-186 137.5t-125.5 204t-46 249.5zM694 1243q0 18 5.5 41t19.5 47 q115 -16 212 -74.5t167 -150.5q-72 -18 -140 -19q-20 0 -39.5 2.5t-35.5 4.5q-121 18 -160 73q-29 37 -29 76z" />
<glyph unicode="P" horiz-adv-x="1126" d="M39 14q0 -22 25 -22h2q23 0 22 22l6 869q43 70 99.5 149.5t130 147t167 113.5t207.5 46h4q74 0 145 -27.5t126 -72.5t90 -103.5t35 -119.5v-6q0 -166 -70 -277.5t-180.5 -179.5t-249.5 -96.5t-279 -28.5q-10 0 -18 -9t-8 -18q-1 -24 26 -24q143 0 291 30.5t267.5 104.5 t195.5 195.5t76 304.5v6q-2 74 -41 141.5t-102.5 118.5t-142.5 82t-161 31h-4q-111 0 -203 -38t-166.5 -96.5t-133 -129t-101.5 -138.5l4 369q0 10 -8 18t-18 8t-18.5 -8t-8.5 -18z" />
<glyph unicode="Q" horiz-adv-x="1652" d="M12 451q0 -115 36 -200t95.5 -141.5t133 -84t151.5 -27.5q119 0 234.5 45t214 123t176 183.5t121.5 225.5l-3 -501v-15l-2 -815q0 -24 21 -24h2q10 0 18.5 7t8.5 17l2 791q16 -2 30 -2h35h8q119 0 214.5 55t166.5 178q2 2 2 13q0 12 -14 22l2 -2q-4 6 -14 6 q-6 0 -13.5 -3t-9.5 -13v4q-127 -211 -321 -211q-20 0 -42 1t-44 5l6 1235q0 20 -21 23l-6 6q-39 10 -81 15t-85 5q-115 0 -234.5 -34.5t-233 -97t-215 -148.5t-176.5 -188.5t-119 -216.5t-44 -230v-6zM63 451v2q0 111 41 218t113 203.5t167 179.5t202.5 142t221.5 93 t222 34q76 0 148 -18l-4 -521q-5 -8 -5 -14q-16 -143 -85.5 -274t-171 -230.5t-227.5 -159t-257 -59.5q-68 0 -133.5 23.5t-116.5 74t-83 126t-32 180.5z" />
<glyph unicode="R" horiz-adv-x="1505" d="M10 1364l2 -1337q0 -27 25 -27q27 0 26 27v866q43 94 93.5 176t109 142.5t126 95t147.5 36.5h6q61 0 123.5 -26.5t114 -70.5t84 -100t32.5 -116q0 -72 -24.5 -151.5t-71.5 -139.5l-39 -45l-8 4v-2q-33 25 -76 34t-96 9h-25q-72 -2 -118 -29.5t-48 -72.5v-4 q0 -43 44 -68.5t122 -25.5q113 4 195 75l14 15q66 -57 98.5 -146.5t57.5 -183.5q14 -61 31.5 -117.5t43 -99.5t64.5 -68.5t100 -25.5q59 2 112.5 25.5t97.5 61.5t82 87t67 102v10q0 4 -3 13.5t-8 13.5h-12q-6 0 -14 -5t-12 -9q-29 -49 -63 -93t-73 -78t-82 -54.5t-92 -20.5 h-4q-43 0 -71.5 22.5t-50 60.5t-37 88t-27.5 103q-23 82 -51.5 167t-85.5 153l-33 29l39 45q57 66 81.5 150.5t24.5 158.5v12q0 74 -38 139.5t-97 115.5t-130 79t-138 29h-6q-80 0 -150 -30t-128 -81t-107.5 -120.5t-90.5 -149.5v352q0 12 -9 19.5t-17 7.5q-10 0 -18.5 -9.5 t-8.5 -17.5zM442 635q4 16 29 34.5t88 20.5q45 0 82 -5t68 -21l14 -9l-2 -2q-68 -61 -162 -61h-10q-66 0 -86.5 16.5t-20.5 26.5z" />
<glyph unicode="S" horiz-adv-x="944" d="M10 266q0 -59 33 -107t86 -83t123 -54.5t141 -19.5h8q74 0 160 22.5t162 66.5t126 108.5t50 148.5q-2 98 -50 184t-108 179v-2q-4 8 -13 20t-13 23l-49 75l28 35q78 90 121 178t43 150q0 31 -15.5 61.5t-39 57t-53 43t-62.5 18.5h-2q-33 0 -67.5 -16.5t-62.5 -43t-45 -59 t-17 -65.5q2 -86 24.5 -162t59.5 -143l22 -47l-29 -33q-74 -78 -164 -130.5t-176 -56.5q-10 0 -16 -8t-6 -18q0 -27 27 -27q94 4 190 61.5t180 143.5l25 25l41 -72v4q8 -16 18 -30.5t19 -28.5h-2q55 -84 97 -162t42 -154v-2q0 -68 -44 -122t-109.5 -92t-143.5 -58.5 t-148 -20.5q-68 0 -129 16.5t-109 45t-76 67.5t-28 84q0 10 -6 18.5t-20 8.5q-10 0 -16.5 -8.5t-6.5 -18.5zM545 1186q0 25 13 48t33.5 41.5t46.5 31t50 12.5q20 0 41 -12.5t38 -31t27.5 -41t10.5 -44.5q0 -53 -40 -134t-108 -161l-20 -23l-10 21q-37 68 -59.5 140.5 t-22.5 152.5z" />
<glyph unicode="T" horiz-adv-x="1591" d="M10 1006q0 -55 21.5 -104.5t55.5 -86.5t77 -58.5t86 -21.5q35 0 63 15q10 2 13.5 9t3.5 13t-4 12.5t-7.5 10.5t-13.5 4q-8 0 -12 -2q-25 -10 -41 -11q-31 0 -64.5 17.5t-61.5 46.5t-45.5 68.5t-17.5 87.5v6q0 70 31 124t78 92t106.5 58.5t116.5 22.5h13q66 0 122 -18.5 t117 -41.5q72 -27 153 -50t195 -23h33l-8 -7q-74 -37 -136.5 -92t-112.5 -120.5t-86 -139.5t-54 -149q-10 0 -19.5 1t-19.5 1q-66 0 -126 -27t-108 -111q-4 -6 -4 -12t3 -13t14 -9q2 -4 8 -4q12 0 22 16q41 68 90.5 87t106.5 19h20q-4 -29 -6 -57.5t-2 -54.5v-39 q4 -84 31 -168t85 -150.5t152.5 -107.5t231.5 -41h6q70 0 141.5 15.5t137 48t122 83t97.5 121.5v8q0 14 -15 25l3 -4q-6 6 -15 6q-6 0 -12 -2t-8 -12q-35 -63 -84 -108.5t-108.5 -74t-126 -42t-132.5 -13.5h-6q-123 0 -208 36t-137 95.5t-76.5 135t-29.5 153.5v31 q0 27 2.5 56.5t10.5 57.5q2 0 6 -1t8 -1h-4q45 -8 102 -12h31q31 0 59.5 3t57.5 18q10 2 12 9t2 13v10q-14 14 -26 15h-9q-23 -10 -48 -14.5t-48 -4.5q-27 0 -55.5 2t-57.5 6q-14 0 -20 5q23 86 69 167.5t108.5 151.5t138 122t161.5 77l39 10h-4l98 16q8 4 11.5 11.5 t3.5 13.5q0 10 -7.5 18t-19.5 8q-20 -2 -36.5 -4t-33.5 -6l-24 -6h4l-80 -10q-31 -4 -57.5 -6t-53.5 -2q-106 0 -183 24.5t-144 50.5q-66 23 -126.5 41.5t-137.5 18.5h-15q-63 -2 -130.5 -26.5t-124 -68.5t-92.5 -110t-36 -147z" />
<glyph unicode="U" horiz-adv-x="1613" d="M10 924q0 -27 21 -31h8q4 0 11 4t9 12q12 53 45 125t79 137.5t100.5 111.5t111.5 46q10 0 13 2q14 0 31.5 -13t32.5 -31.5t25.5 -40t10.5 -40.5l-12 -1001v-6q0 -59 21.5 -98.5t56 -63t77.5 -33.5t88 -10h2q141 14 248 106.5t164 247.5l4 -213q0 -29 16.5 -52.5t41 -40.5 t54 -27.5t54.5 -12.5h14q51 2 95.5 29.5t82 66.5t67.5 85t52 85q2 4 2 13q0 10 -4 13t-10 7t-12 4q-14 0 -21 -16v4q-23 -39 -51.5 -80t-60 -76t-67.5 -58.5t-75 -25.5h-6q-20 0 -41.5 7.5t-40 18.5t-30 25.5t-11.5 30.5l-2 410q0 16 2 26q0 10 -2 15l-6 760q0 25 -27 24 q-23 0 -22 -27l4 -790q-33 -217 -129 -350t-244 -154l-41 -6l-39 4q-63 2 -109 41t-46 117l12 1001q0 25 -11 53.5t-30.5 53t-44.5 43t-49 24.5h-31l-31 -6q-66 -12 -123 -65.5t-104 -122t-78.5 -140t-44.5 -122.5z" />
<glyph unicode="V" horiz-adv-x="1748" d="M10 907q0 -10 3 -19t18 -14h8q4 0 11 4.5t9 14.5q20 80 59.5 155.5t86.5 134t96 94.5t90 36q37 0 70 -26.5t33 -98.5l-5 -834q0 -70 38 -134t97.5 -113.5t130 -79t138.5 -29.5q86 0 156.5 36t126 95t96.5 137t66.5 162t39 170t13.5 160v67q0 23 2 46.5t2 50.5t-2 56.5 t-4 57.5l-5 17l35 4q100 4 191.5 50t154.5 103q6 6 7 19q0 2 -1.5 8t-5.5 10t-10 4h-8q-10 0 -16 -4q-59 -53 -142.5 -95t-171.5 -46l-41 -2v24q-10 104 -56 177t-130 73q-23 -2 -50.5 -9t-52 -21.5t-42 -36t-17.5 -47.5q0 -57 27.5 -95.5t68.5 -62t87 -34.5t83 -13l39 -6 l2 -6v4q4 -31 5 -64t1 -65v-164q0 -111 -27.5 -236t-83.5 -229.5t-140 -174t-197 -69.5h-2q-59 0 -121.5 26.5t-114 69.5t-84 97.5t-32.5 111.5l4 834q0 92 -47 134t-109 42q-49 0 -106.5 -41t-110.5 -105.5t-96 -146.5t-64 -164zM1081 1264q0 23 35 42t74 19q61 0 92 -52 t41 -134l4 -33l-27 2q-39 4 -77.5 13t-70.5 27.5t-51.5 46.5t-19.5 69z" />
<glyph unicode="W" horiz-adv-x="2246" d="M12 924q0 -20 21 -21h6q6 0 13 6t11 13q20 74 57.5 143.5t83.5 124.5t98 89t104 34q37 0 50 -19.5t13 -66.5l14 -891q2 -92 29 -156.5t70 -104.5t98 -58.5t115 -18.5h8q82 0 166 58.5t133 181.5q18 -63 53 -107.5t81 -72t99.5 -40t104.5 -12.5q76 0 139 36t114.5 94.5 t89.5 134t63.5 158.5t37.5 166t12 157v69q0 41 -1 88t-7 97l-8 67q104 4 201.5 44t175.5 91h-2q8 2 11 9.5t3 13.5q0 10 -6 16l2 -4q-10 14 -22 14q-4 0 -8.5 -1t-6.5 -1q-80 -51 -171 -88t-187 -41l-4 33q-16 86 -59.5 151.5t-120.5 75.5h4q-10 4 -21 5h-14 q-70 0 -103.5 -37t-33.5 -86q0 -45 28.5 -88t89.5 -72q35 -16 75 -25.5t81 -9.5h35l8 -61q8 -61 9 -121t1 -107v-45q0 -72 -12 -149.5t-35.5 -152.5t-58.5 -144.5t-80 -121.5t-100.5 -84t-118.5 -32q-53 0 -106.5 15.5t-96.5 49.5t-70.5 88t-27.5 134v12l10 432 q0 14 -9.5 20.5t-17.5 6.5q-23 0 -26 -20l-6 -406v-45q0 -29 2 -55.5t10 -48.5q25 61 37 143q0 8 -6.5 17.5t-16.5 9.5q-27 0 -26 -25q-10 -88 -41 -151.5t-72 -104.5t-87 -60.5t-87 -19.5q-51 0 -99.5 15.5t-85 49t-60 89t-23.5 135.5l-17 893q0 63 -23.5 99t-88.5 36 q-63 0 -125 -38t-114 -99.5t-93 -138t-62 -154.5v-10zM1567 1268q0 29 21.5 50t66.5 21q6 0 12 -1t14 -1q53 -10 85 -61t49 -127l6 -25h-27q-35 0 -68.5 9.5t-68.5 21.5q-47 20 -68.5 52t-21.5 61z" />
<glyph unicode="X" horiz-adv-x="1941" d="M10 1112q0 -12 8 -18q6 -8 19 -9q8 0 16 9q98 102 221 168.5t254 66.5h2q106 0 183.5 -58.5t125.5 -145.5t70.5 -191.5t22.5 -196.5v-8v-31q0 -12 -4 -24l-2 -12l-125 -13q-129 -14 -251 -34.5t-215 -60.5t-150.5 -105.5t-57.5 -169.5v-5q0 -55 29.5 -105t76 -89 t101.5 -62.5t106 -23.5q100 2 183.5 44t148 111.5t108.5 157.5t66 182v3q10 -100 49 -190.5t102.5 -159t152.5 -108.5t202 -40h6q70 0 146.5 18.5t146.5 54t126 86t87 115.5q4 4 4 13q0 6 -6 13t-10 11h-8q-6 0 -14.5 -3t-12.5 -13q-27 -57 -77 -102.5t-113.5 -77t-133 -49 t-137.5 -17.5h-6q-109 0 -194 45t-144 119t-90 170t-33 198v46l103 12q129 14 249.5 41.5t213 77t148.5 127t56 194.5v4q0 53 -19.5 105.5t-58.5 93.5t-98 65.5t-137 24.5q-113 0 -194 -45t-136 -114.5t-89 -155.5t-52 -172v-5q-10 88 -42 178.5t-87 163t-134 117.5t-182 45 h-2q-143 0 -277 -71.5t-233 -178.5q-4 -4 -6 -9t-2 -7zM176 274q0 86 48 141.5t132 91.5t197 55.5t242 33.5l129 16q-12 -102 -50 -202.5t-99.5 -181.5t-146 -132t-188.5 -53q-45 0 -91 20.5t-84 53.5t-62.5 73.5t-26.5 83.5zM989 670l6 41q0 10 2 20t4 21q0 4 2.5 10 t2.5 10q16 90 44.5 185.5t79 174t127 130t189.5 51.5h6q63 0 111.5 -20.5t80 -53.5t48 -76t18.5 -86q0 -104 -49 -172.5t-133 -112.5t-196.5 -70t-239.5 -40z" />
<glyph unicode="Y" horiz-adv-x="1515" d="M10 1079q0 -27 23 -26q10 0 18 7t8 17q2 31 15.5 74t39 81t61.5 65.5t83 27.5q23 0 43.5 -15.5t36.5 -40t25.5 -53t9.5 -55.5v-622q0 -47 14 -98.5t46 -94.5t81 -70.5t119 -27.5q61 2 119.5 36.5t110.5 91t97.5 128t79.5 145.5l-6 -737l-65 -43q-72 -45 -135.5 -90 t-110.5 -94.5t-76 -104.5t-29 -121v-6q0 -41 17.5 -87t48.5 -84t71 -62.5t83 -24.5q70 0 116.5 45t75.5 111.5t41 140.5t12 133v252l68 41q109 68 212 151t171 191h-2q6 6 6 14t-3 11.5t-7 7.5t-9.5 5t-7.5 1q-8 0 -14 -6l-12 -12q-61 -98 -161.5 -177t-211.5 -145l-25 -18 l9 1405q0 10 -8.5 18t-18.5 8t-16 -8t-6 -18l-7 -562q-33 -82 -76.5 -168t-97 -155.5t-113 -114.5t-120.5 -45h-6q-53 0 -92 21.5t-64 55.5t-37 77t-12 84v622q0 31 -12.5 68t-34 69.5t-51 54t-66.5 21.5q-61 0 -108.5 -33.5t-78 -81t-46 -97.5t-15.5 -83zM668 -547 q0 55 27.5 104.5t73.5 95.5t107.5 89t131.5 86l26 16v-219q-2 -59 -13 -125.5t-33.5 -123t-59.5 -94.5t-90 -38q-31 0 -62 19.5t-55.5 50.5t-38.5 67.5t-14 71.5z" />
<glyph unicode="Z" horiz-adv-x="1484" d="M10 1108q0 -47 14.5 -91t40 -80t63.5 -58.5t87 -24.5q10 0 18.5 8t8.5 19q0 23 -25 22q-35 2 -63.5 19.5t-48 45t-31 64.5t-11.5 76v4q0 37 18.5 73t48.5 64.5t68 46t78 17.5h15q98 0 190 -21.5t185 -50.5q51 -16 102 -30.5t102 -24.5l-12 -31q-33 -74 -58.5 -161 t-49.5 -177q-6 -20 -11.5 -39.5t-9.5 -40.5q-23 6 -44 10.5t-46 4.5q-51 0 -103.5 -27t-107.5 -104q0 -4 -1 -6.5t-1 -6.5q0 -16 10 -20q4 -2 8.5 -4t10.5 -2l6 4l2 2l-2 -2l8 8q47 61 88 84.5t82 23.5q16 0 35.5 -4t40.5 -10q-33 -129 -69 -245.5t-83 -204.5l-8 -13l-12 6 q-78 29 -178 29q-72 0 -119 -40t-58 -89q-2 -6 -2 -14v-15q0 -47 33 -80.5t100 -33.5q82 0 146.5 46t112.5 128l34 -12q35 -14 66 -29t61 -31q66 -33 136.5 -61.5t154.5 -36.5q4 0 10.5 -2t10.5 -2q12 0 18 -2h14q76 0 139.5 25.5t115 65.5t92 89t71.5 98h-2q6 4 6 15 q0 6 -3 11t-5 9q-4 4 -10 5t-8 1q-6 0 -13.5 -6t-13.5 -12q-31 -47 -67.5 -91t-82 -79t-99.5 -56.5t-120 -21.5h-24q-12 0 -25 2q-68 10 -136.5 36.5t-133.5 59.5q-33 16 -67.5 32.5t-69.5 29.5l-23 8l6 10q51 90 85 205t65 231q0 4 1 8.5t1 8.5q2 -2 12 -2q33 -16 69 -27.5 t77 -11.5t78.5 17.5t78.5 64.5q6 6 6 18q0 2 -1 7t-5 9.5t-9 5.5t-7 1q-8 0 -12.5 -1t-8.5 -12l2 4q-33 -35 -63.5 -50t-58.5 -15q-29 0 -59 10t-64 23q-4 4 -11 4q-4 0 -10 2q6 16 8 33q31 119 62 220t65 179l13 27l51 -9q25 -4 51.5 -5t54.5 -1q70 0 108 40t38 83 q0 41 -32 71.5t-99 30.5q-59 0 -107.5 -37.5t-83.5 -101.5l-8 -16l-14 4q-47 10 -103.5 24.5t-111.5 30.5q-88 29 -181.5 51.5t-195.5 22.5h-15q-51 0 -99 -22.5t-85 -59.5t-59.5 -83t-22.5 -91zM236 102q0 8 2 15q8 35 40.5 64.5t86.5 29.5q41 0 82.5 -6t82.5 -23l-20 -26 q-74 -115 -191 -117q-47 0 -65 19.5t-18 43.5zM948 1223l4 4q29 53 66 79.5t78 30.5q41 0 61.5 -16t20.5 -37q0 -27 -25 -48.5t-72 -25.5q-25 0 -49 1t-47 6z" />
<glyph unicode="_" horiz-adv-x="718" d="M-20 -879q0 -10 7 -17t19 -7h713q12 0 19 7t7 17q0 8 -7 16.5t-19 8.5h-713q-12 0 -19 -8t-7 -17z" />
<glyph unicode="`" horiz-adv-x="1126" d="M387 1528q0 -17 16 -25l181 -96q6 -6 12 -6q12 0 21.5 9t9.5 22q0 14 -17 24l-180 96q-8 4 -12 4q-12 0 -21.5 -8t-9.5 -20z" />
<glyph unicode="a" horiz-adv-x="991" d="M-31 217q0 -45 22.5 -86t57.5 -71.5t78 -49t86 -18.5q98 0 184 50t140 116q2 -29 15 -57.5t34.5 -53t49 -40t58.5 -15.5q41 0 84 30.5t84 67.5q41 41 79 88t65 88q6 6 6 15q0 14 -15 24l2 -4q-6 6 -14 6q-6 0 -13 -2t-11 -12v2q-27 -41 -63 -88t-71 -82 q-41 -37 -75.5 -60.5t-57.5 -23.5q-18 0 -37.5 12.5t-35 30.5t-24.5 40.5t-9 45.5l-4 74h2t2 2v8v2t-4 4l-2 336v6q-4 4 -4 6q0 4 -3 6q-4 2 -6 2t-6 5h-6h-6h-14q-72 0 -169.5 -23t-186.5 -71t-150.5 -124.5t-61.5 -183.5v-2zM18 219v4q0 90 55.5 154.5t134.5 107.5 t167 63.5t155 22.5l5 -313q-12 -35 -43 -73t-74 -70.5t-95.5 -53t-109.5 -20.5q-35 0 -69.5 15.5t-62.5 40t-45.5 56t-17.5 66.5z" />
<glyph unicode="b" horiz-adv-x="1001" d="M-31 281q0 -12 8 -21q6 -6 17 -6q12 0 22 14l-2 -2q27 41 59.5 90.5t65.5 102.5v-119q0 -66 21.5 -128t60.5 -111.5t90.5 -79t112.5 -29.5q70 0 126 42t89 107l18 41l23 -12q25 -14 52.5 -19.5t53.5 -5.5q68 0 128.5 33t103.5 88q4 6 4 15q0 8 -8 20q-4 4 -9.5 5t-7.5 1 q-8 0 -12 -1t-8 -11l2 4q-41 -47 -90 -73.5t-103 -26.5q-45 0 -88 18h2l-22 14l14 41q10 33 14.5 67t4.5 64q0 78 -24.5 131.5t-90.5 53.5q-41 0 -63.5 -16.5t-34 -41t-14.5 -51t-3 -47.5q0 -59 25.5 -111.5t75.5 -89.5l30 -24l-20 -43q-27 -55 -71 -89t-97 -34 q-47 0 -89 25.5t-75 66.5t-52.5 95.5t-19.5 111.5v215l27 47q43 80 82 161t68.5 155.5t46 141t16.5 116.5q0 39 -6 89t-22.5 93t-48.5 72.5t-83 29.5q-31 0 -54.5 -15t-39.5 -39t-25.5 -51.5t-9.5 -51.5v-732l-39 -67q-31 -55 -57.5 -96t-52.5 -82q-2 -4 -8.5 -16.5 t-8.5 -16.5q-4 -6 -4 -12zM188 664v639q0 37 25 70.5t55 33.5q31 0 52.5 -20.5t35 -54.5t18.5 -74.5t5 -81.5q0 -70 -40 -183.5t-106 -240.5zM530 432q0 41 10.5 74t55.5 33q31 0 47 -32t16 -104q0 -49 -16 -118l-12 -27l-15 10q-41 29 -63.5 73t-22.5 91z" />
<glyph unicode="c" horiz-adv-x="724" d="M-31 289q0 -61 35 -115.5t88 -94.5t117 -63.5t123 -23.5q68 0 129 21.5t113.5 59.5t95.5 88t71 107q4 4 4 13q0 14 -14 24h-10q-6 0 -14.5 -3t-12.5 -13q-27 -53 -64.5 -98.5t-84.5 -78t-101.5 -52t-111.5 -19.5q-53 0 -108.5 20.5t-100.5 56.5t-75 81t-30 94v6 q4 63 34 113.5t73 84t95 52t106 18.5q63 0 114 -26h9q14 0 24 14q2 4 2 12q0 10 -4 13.5t-10 7.5q-29 16 -62.5 22t-72.5 6q-61 0 -123 -20.5t-112 -60t-84 -99t-38 -135.5v-12z" />
<glyph unicode="d" horiz-adv-x="991" d="M-31 223q0 -41 16.5 -82t47 -74.5t76 -54t104.5 -20.5h2q98 6 177 67.5t138 137.5q6 -53 19 -95q16 -47 50 -78.5t99 -31.5q55 0 98.5 23.5t78 59.5t62.5 78t50 80q4 10 10.5 18.5t10.5 16.5q0 4 2 7.5t2 5.5q0 14 -15 24h-10q-6 0 -13 -3t-9 -7q-4 -6 -9.5 -11t-9.5 -12 q-27 -43 -53.5 -85t-55 -74.5t-63.5 -52t-76 -19.5t-63.5 22.5t-36.5 57.5q-12 33 -14 72.5t-2 74.5q2 4 2 13q0 4 -1 5t-1 3v270q2 2 2 12q0 4 -2 9l2 684q0 10 -6.5 18t-20.5 8q-10 0 -16 -8t-6 -18l-5 -668q-66 -2 -158.5 -17.5t-181 -51t-151 -95t-66.5 -147.5v-21 l-4 -20v-21zM18 227q0 18 5 27v6q0 76 54 130t133 88t166 50.5t154 18.5v-266q-29 -41 -61.5 -81t-69.5 -73t-76.5 -55.5t-82.5 -28.5l-27 -2l-27 2q-41 2 -72.5 19.5t-53 43t-32 58.5t-10.5 63z" />
<glyph unicode="e" horiz-adv-x="591" d="M-31 274q0 -6 1 -14t1 -14q4 -43 18.5 -88t44 -82t79 -60.5t125.5 -23.5q78 0 137 26.5t103 68.5t76 91t56 96q2 4 2 13q0 14 -14 22h-8q-14 0 -25 -10q-25 -45 -53.5 -91t-67 -83t-90 -60.5t-116.5 -23.5q-61 0 -102.5 17.5t-66 47t-35.5 66.5t-14 76v12h27q94 0 189 33 q57 25 97 64.5t40 111.5q0 57 -39 98t-90 45h-56q-49 -10 -89 -45t-69.5 -83t-45 -104t-15.5 -106zM20 309l5 19q6 43 23.5 85t43 74.5t59 53t70.5 20.5h10q35 0 64 -26.5t29 -65.5q0 -49 -30 -79t-77 -48q-78 -33 -160 -33h-37z" />
<glyph unicode="f" horiz-adv-x="563" d="M-168 -575v-7q0 -31 14.5 -63.5t39 -58t55 -43t63.5 -17.5h4q35 0 68 18.5t57.5 46t39.5 61.5t15 67v405l15 10l24 25q98 92 194.5 192.5t166.5 212.5h-4q6 6 6 15q0 14 -15 24h-8q-8 0 -17 -5t-13 -9q-61 -104 -144.5 -195.5t-171.5 -173.5l-33 -30v653l35 59 q43 78 81 155t67.5 148.5t46 134t16.5 111.5v4q-2 37 -11 84t-28.5 91t-50.5 76t-76 36h-6q-29 0 -51.5 -16.5t-37.5 -41t-24.5 -52t-9.5 -50.5v-719l-33 -55q-23 -47 -50 -88t-52 -82h4q-10 -14 -16 -26.5t-17 -26.5q-6 -6 -6 -14q0 -6 3 -13.5t12 -9.5q6 -4 12 -4 q10 0 13 4t7 10v-2q57 88 123 197v-608l-35 -33q-55 -51 -104 -101.5t-87 -99.5t-59.5 -98t-21.5 -98zM-119 -580q0 43 20.5 88.5t55.5 91.5t82 93t100 96v-360q0 -25 -11 -50.5t-29.5 -46t-42 -34t-48.5 -13.5q-23 0 -45 12.5t-40.5 32t-30 43t-11.5 45.5v2zM188 657v635 q0 39 22.5 74t51.5 35h2q25 -2 45.5 -20.5t34.5 -47t23.5 -63.5t11.5 -68l6 -41l-2 -35q-8 -86 -63.5 -210.5t-131.5 -258.5z" />
<glyph unicode="g" horiz-adv-x="960" d="M-31 231q0 -43 19.5 -86t51.5 -76.5t74 -55t87 -21.5q104 0 186 56t143 145v-343l-20 -16q-115 -96 -191.5 -187t-80.5 -206q0 -31 12 -68t33.5 -67.5t51.5 -51t64 -20.5h2q45 0 79 21.5t55.5 53.5t33 67.5t11.5 64.5l4 389l20 18q98 84 200.5 185.5t174.5 234.5 q2 4 2 13q0 14 -14 24h-9q-8 0 -16 -3t-10 -13q-59 -111 -142 -198t-169 -161l-37 -32l2 688v2q0 10 -8.5 17t-18.5 7q-104 0 -208.5 -26.5t-189.5 -76.5t-138.5 -121t-53.5 -157zM18 231q0 70 44 128.5t116 102.5t164 69.5t190 29.5l-2 -268q-2 0 -2 -2t-4 -4 q-66 -109 -143.5 -177.5t-179.5 -68.5q-35 0 -68 16.5t-58.5 43t-41 61.5t-15.5 69zM291 -559q0 88 58.5 162.5t146.5 152.5l34 31v-346q0 -23 -8 -50.5t-25.5 -51t-42 -40t-55.5 -16.5q-20 0 -39.5 14.5t-35 36t-24.5 48t-9 53.5v6z" />
<glyph unicode="h" horiz-adv-x="1093" d="M-27 281q0 -6 3.5 -13.5t11.5 -9.5q6 -4 12 -4q10 0 13 4t7 10l-2 -2l70 105l49 78v-160q-2 -2 -2 -6v-2q0 -12 2 -15v-248q0 -26 23 -26h2q8 0 16 6t8 20v254q20 20 39 40t39 42q27 29 52.5 55.5t54.5 53.5q51 47 106 75.5t119 28.5q29 0 40 -41t11 -84v-297 q0 -25 11.5 -51t30 -50t45 -38t57.5 -14q51 0 96 24.5t82 61.5t67.5 80t55.5 82h-5q12 14 16.5 21t8.5 18q2 2 2 10q0 16 -10 20q-6 4 -17 4q-6 0 -11 -1t-9 -11l4 4l-20 -26q-27 -45 -54.5 -85t-52.5 -69q-35 -37 -72.5 -60.5t-80.5 -23.5q-35 0 -64 34t-29 70v297 q0 20 -4 50t-14 58t-30.5 47t-53.5 19q-57 0 -107.5 -20.5t-96.5 -54t-87 -75.5t-80 -83q-10 -10 -19 -20.5t-20 -20.5v184l39 66q86 135 142.5 282.5t56.5 307.5q0 37 -10.5 87t-29.5 95t-47 77t-65 32q-41 0 -65.5 -21.5t-40.5 -52.5q-29 -57 -29 -148v-710l-22 -29 q-20 -33 -40 -65.5t-42 -65.5q-14 -23 -28.5 -43.5t-27.5 -42.5h3q-6 -6 -7 -14zM186 629v622q0 35 8.5 68t18.5 59q20 43 59 43q16 0 34 -19.5t34 -58.5q16 -41 25.5 -83.5t9.5 -77.5q0 -143 -53.5 -281.5t-135.5 -271.5z" />
<glyph unicode="i" horiz-adv-x="456" d="M-10 922q0 -16 10 -27q15 -12 27 -12q14 0 26.5 12t12.5 27q0 14 -12.5 26.5t-26.5 12.5q-12 0 -27 -13q-10 -10 -10 -26zM0 158q0 -31 14.5 -61.5t36 -53.5t49 -37t54.5 -14q55 0 96 18.5t75.5 49t63.5 71.5t60 88l22 47q6 6 6 15q0 6 -3 10t-5 8q-6 6 -14 6 q-16 0 -21 -10q-10 -10 -15 -19.5t-9 -15.5l4 4q-35 -53 -65 -94t-59.5 -69.5t-62 -44t-73.5 -15.5q-16 0 -35 10t-34 26.5t-24.5 37t-9.5 43.5v424q0 26 -24 26h-2q-25 0 -25 -26v-424z" />
<glyph unicode="j" horiz-adv-x="559" d="M-178 -555q0 -33 13 -70t37 -68.5t55.5 -53t68.5 -23.5h4q37 0 69.5 19.5t57.5 49t39 65.5t14 69v415l15 11q104 96 208.5 198.5t171.5 214.5h-2q6 6 7 15q0 16 -17 22q-4 4 -10 4q-18 0 -25 -14v2q-61 -104 -144 -192.5t-171 -167.5l-33 -25l6 692q0 14 -8 20.5t-18 6.5 q-27 0 -27 -23t-15.5 -61.5t-38 -84.5t-51 -91t-55.5 -80q-4 -4 -5 -9t-1 -7q0 -8 1 -12.5t12 -8.5q6 -4 10 -4q8 0 11 3l7 7q33 37 65.5 91.5t59.5 107.5l-2 -594l-35 -33q-57 -51 -107 -101t-87 -98.5t-58.5 -96.5t-21.5 -95zM-129 -555q0 41 20.5 84t55.5 87t83 90 t101 95l-2 -368q0 -25 -11.5 -52.5t-30.5 -49t-42.5 -36t-48.5 -14.5t-47.5 15.5t-40 39t-27.5 52t-10 57.5zM113 922q0 -18 10 -23q2 -10 10.5 -13t18.5 -3q14 0 26 12t12 27q0 14 -12 26.5t-26 12.5q-10 0 -18.5 -3.5t-10.5 -13.5l2 4q-12 -12 -12 -26z" />
<glyph unicode="k" horiz-adv-x="925" d="M-31 279q0 -8 1 -12.5t12 -8.5q6 -4 12 -4q10 0 20 10q6 8 11.5 16.5t11.5 18.5q31 39 52.5 70.5t35.5 48.5h-4l16 20v-28v-2v-52v-2v-336q0 -26 23 -26h2q10 0 18 6t8 20v291q20 -6 42 -8t51 -2h20h2q45 -29 78 -73t63 -85q41 -59 80 -103t105 -46h2q43 0 89 27.5 t88 70.5t78 93t60 96v8q0 14 -14 22l4 -2q-6 6 -16 6q-14 0 -21 -14q-23 -45 -56.5 -92t-70.5 -82q-39 -39 -77 -61.5t-66 -22.5q-45 2 -79 39t-69 90q-27 35 -52.5 72t-57.5 71q78 23 140 71t77 116v10q0 25 -14.5 45t-36 35.5t-48 24t-49.5 8.5q-47 0 -99 -26t-93 -56 q-18 -10 -33.5 -21.5t-26.5 -25.5v20l11 16q98 154 168.5 323t70.5 347q0 37 -10 82t-29.5 83t-49.5 64.5t-68 26.5q-35 0 -61.5 -19.5t-45 -48t-28 -64.5t-9.5 -69v-720l-20 -31q-35 -53 -57.5 -89t-43.5 -61q-10 -16 -20 -29.5t-21 -29.5q-4 -4 -5 -9t-1 -7zM188 362v48 q8 16 31.5 41.5t56.5 52.5q41 29 82 48t82 19q35 0 65 -19.5t30 -41.5v-6q-4 -29 -25 -53.5t-51.5 -45t-67.5 -35t-74 -20.5q-2 4 -6 4h-2q-4 0 -9 -2t-9 -4h-23q-45 0 -80 14zM188 614v641q0 57 27 104.5t66 47.5q23 0 42 -18.5t33.5 -48t22.5 -66.5t8 -74 q0 -150 -56.5 -298t-142.5 -288z" />
<glyph unicode="l" horiz-adv-x="598" d="M-37 281q0 -12 8 -17q6 -10 19 -10q8 0 18 10q31 37 63.5 80t63.5 92l6 8l-2 -163q0 -37 6.5 -86.5t23.5 -94.5t48 -76.5t78 -31.5q51 0 95 23.5t80 59.5t65.5 80t56.5 85h-2q6 10 11 18t11 16q6 6 6 15q0 14 -14 24q-6 2 -12 2t-13.5 -2t-9.5 -12l2 4l-26 -37 q-27 -45 -54.5 -86t-57.5 -72.5t-64.5 -50t-73.5 -18.5q-29 0 -48.5 21.5t-31.5 54.5t-17 72.5t-5 76.5v266l14 23q45 76 87 162t74.5 170t51 161.5t18.5 139.5q0 37 -9 86t-28.5 93t-51.5 75t-75 31q-29 0 -51 -15.5t-37.5 -39t-24.5 -50.5t-9 -49l-11 -768l-14 -31v4 q-47 -80 -88 -139t-70 -90q-6 -6 -6 -14zM195 641l6 678q0 35 22.5 68.5t50.5 33.5q27 0 47.5 -22.5t35 -57t22.5 -75.5t8 -78q0 -51 -15.5 -115.5t-42 -136.5t-60 -146.5t-72.5 -146.5v4z" />
<glyph unicode="m" horiz-adv-x="1523" d="M-31 281q0 -6 3 -13.5t12 -9.5q6 -4 12 -4q14 0 22 14q10 18 16.5 29.5t14.5 21.5q20 35 41 71t43 69q72 100 90 100q16 0 28.5 -18.5t12.5 -40.5v-482q0 -26 27 -26q25 0 24 26v318l29 41q55 86 113.5 134t126.5 48q31 0 56.5 -37t25.5 -73v-431q0 -26 24 -26h2 q10 0 18.5 6t8.5 20v295l26 37q49 72 111 133q37 39 68.5 61.5t52.5 22.5q41 0 68.5 -39t27.5 -84v-313q6 -41 20.5 -68.5t35 -43t45 -21.5t49.5 -6h2q55 0 103 28.5t88 71.5t72 92t52 90q4 4 4 13q0 6 -5 12t-9 10h-10q-6 0 -14.5 -2t-12.5 -12q-23 -41 -50.5 -86t-62 -82 t-74.5 -61.5t-83 -24.5q-31 0 -58.5 15.5t-40.5 68.5l-2 16v303q0 27 -10 59t-28.5 57.5t-45 43t-61.5 17.5t-77 -31t-79 -72q-25 -25 -51.5 -55.5t-50.5 -65.5v52q0 25 -10.5 52t-28.5 50.5t-43 40t-53 16.5q-84 0 -153 -50t-116 -126v68q0 35 -24.5 71.5t-67.5 36.5 q-35 0 -69.5 -38t-61.5 -81h4q-25 -35 -44 -66.5t-36 -60.5q-14 -23 -24 -40t-17 -27q-6 -6 -6 -14z" />
<glyph unicode="n" horiz-adv-x="1114" d="M-31 279q0 -8 1 -12.5t12 -8.5q6 -4 12 -4q10 0 20 10q33 47 51.5 72.5t26.5 38t10 15.5t0 3l1 2t8 13l26 43h-4q35 47 60 75q25 25 36 25h17q2 0 4 -4v-219v-2v-308q0 -26 24 -26h2q25 0 25 26v295q10 12 22.5 30.5t26.5 37.5q23 31 47.5 63.5t52 59t57.5 44t64 17.5 q20 0 39 -12t32 -31.5t20.5 -44t7.5 -47.5v-301q0 -35 13 -60.5t34.5 -42t47 -25.5t50.5 -9q55 0 103.5 25.5t88.5 66.5t71.5 89t56.5 95v11q0 8 -15 26h-10q-6 0 -13 -3t-10 -13q-25 -45 -54 -89t-63 -80t-73 -57.5t-82 -21.5q-35 0 -65.5 23.5t-30.5 64.5v301 q0 27 -10.5 59.5t-28.5 61.5t-46 47t-63 18q-41 0 -76.5 -16t-66.5 -44t-58.5 -62.5t-52.5 -71.5l-16 -27v146q0 8 -1 18t-11 21q-18 20 -60 20q-37 0 -70.5 -38t-62.5 -83l-37 -51q-29 -45 -51 -82t-33 -51q-4 -4 -5 -9t-1 -7z" />
<glyph unicode="o" horiz-adv-x="917" d="M-31 295q0 -66 25.5 -121t70 -97t102.5 -65.5t126 -23.5q100 0 178 49t119 129q49 -14 110 -14q63 0 123 26.5t109 89.5q4 4 5 10.5t1 8.5q0 6 -1 11t-11 9l2 -2q-6 4 -15 4q-12 0 -20 -8q-37 -53 -89 -75.5t-108 -22.5q-23 0 -44 2t-46 8q12 39 12 82q0 66 -25.5 122 t-69.5 98t-103.5 66.5t-126.5 24.5q-68 0 -126 -24.5t-102.5 -66.5t-70 -98.5t-25.5 -121.5zM18 295q0 53 21.5 100t58.5 82t87.5 55.5t107.5 20.5q20 0 38.5 -2t37.5 -10q-29 -23 -39.5 -54.5t-10.5 -64.5t17.5 -66.5t48.5 -64.5t71 -58.5t83 -48.5q-33 -63 -98.5 -104 t-147.5 -41q-57 0 -107.5 20.5t-87.5 55.5t-58.5 81t-21.5 99zM373 422q0 29 11 55.5t42 42.5q63 -33 103 -93t40 -132q0 -29 -10 -64q-84 35 -135 90.5t-51 100.5z" />
<glyph unicode="p" horiz-adv-x="1062" d="M-31 281q0 -4 1 -10.5t12 -10.5q6 -6 14 -6l5 2t9 4q35 37 64.5 81t50.5 95v-1247q0 -27 27 -27q23 0 22 27v981q10 20 25.5 50t35 64.5t40 70.5t42.5 69q49 72 97.5 120t93.5 48q35 0 65.5 -38t30.5 -81v-323q0 -27 12.5 -54.5t33 -50t47 -37t55.5 -14.5q51 0 95 23.5 t80 59.5t65.5 78t54.5 78q4 8 13 21.5t15 23.5l7 13q0 1 -9 -10v6q0 6 -3 11t-7 9q-4 6 -14 6q-6 0 -13.5 -3t-9.5 -11l2 2q-8 -12 -19.5 -26.5t-21.5 -30.5q-20 -29 -37.5 -58.5t-44.5 -56.5q-35 -37 -72.5 -61.5t-80.5 -24.5q-16 0 -34 10t-31 25.5t-21.5 34t-8.5 37.5 v323q0 27 -12 57.5t-32.5 55t-47 41t-57.5 16.5t-62.5 -16.5t-60.5 -43t-56.5 -61.5t-52.5 -69q-31 -47 -56 -91.5t-46 -80.5v346q0 22 -20 22h-2q-8 0 -15.5 -3t-11.5 -13q-20 -104 -54 -190.5t-94 -143.5l5 2q-10 -4 -11.5 -10t-1.5 -10z" />
<glyph unicode="q" horiz-adv-x="851" d="M-31 252q0 -63 19.5 -111.5t52.5 -81t75 -50t87 -17.5q106 0 187 48t153 153v-992q0 -26 24 -26h2q23 0 23 26v817q84 23 153.5 83.5t124.5 177.5q2 2 2 10q0 10 -4 13t-8 5q-4 6 -14 6q-6 0 -12.5 -5t-10.5 -9q-49 -102 -107.5 -155.5t-123.5 -73.5v215v2v305v8v6 q-2 20 -23 21q-84 0 -188.5 -20.5t-195.5 -64.5t-153.5 -116t-62.5 -174zM18 252q0 82 51.5 142.5t129 99t170 58t174.5 23.5v-288q-76 -133 -155 -188.5t-185 -55.5h-6q-33 0 -65 13.5t-57.5 40t-41 65.5t-15.5 90z" />
<glyph unicode="r" horiz-adv-x="733" d="M-31 281q0 -14 8 -17q4 -10 19 -10q6 0 16 10q59 59 107.5 135t77.5 148v4h6q10 -4 16 -9t16.5 -9.5t24.5 -13.5t25 -19q23 -10 22 -15l4 -2l-4 -26q-2 -16 -9 -40t-15 -50q-16 -45 -28.5 -96.5t-12.5 -112.5q0 -31 17 -60.5t43 -53.5t57.5 -37t60.5 -13q59 0 107 26.5 t88 67.5t73 89t62 89q0 2 2 7.5t2 7.5q0 14 -17 24q-4 2 -10 2q-20 0 -25 -14v2q-29 -43 -59.5 -87t-65 -81t-73.5 -60.5t-84 -23.5q-20 0 -43 10t-41.5 26.5t-30.5 37t-12 41.5q0 57 14.5 109t26.5 95q10 35 18 65t8 58v7q-2 16 -16 28t-27 21q-4 4 -8 7t-6 5 q-12 6 -24.5 13t-26.5 14l4 -5q-8 4 -14 8.5t-13 8.5l-14 8l2 2q18 51 19 94q0 37 -28 55.5t-52 18.5h-6q-33 -4 -52.5 -31.5t-19.5 -56.5q0 -43 43 -76l33 -26l-4 -15q-27 -70 -72 -141.5t-101 -124.5q-8 -8 -8 -18zM127 682q0 10 8 21.5t19 15.5q10 0 20 -6t10 -17 q0 -10 -2 -24.5t-8 -30.5l-4 -12l-16 14q-27 14 -27 39z" />
<glyph unicode="s" horiz-adv-x="718" d="M-31 281q0 -6 3 -13.5t12 -9.5h10q10 0 24 14q31 55 66 105q16 25 33.5 50.5t34.5 49.5l6 12q27 -20 51 -35.5t53 -29.5h-2q86 -51 136 -87t50 -71v-18q0 -6 -2 -17l-10 -20l-47 -4h-31q-41 0 -74.5 -1t-60.5 -7q-37 -10 -60.5 -34t-23.5 -71q0 -25 14.5 -43t36 -31.5 t46 -19.5t42.5 -6q53 0 104.5 39t78.5 98l14 27h6q74 4 143.5 24.5t112.5 85.5q0 4 2 7.5t2 5.5q0 14 -14 24l2 -4q-6 6 -14 6q-14 0 -29 -18q-29 -43 -81 -60.5t-114 -17.5l5 8q2 10 4 21.5t2 25.5q0 31 -18.5 57.5t-46 50t-62.5 44t-68 39.5l-22 12l2 -4q-6 4 -14.5 9 t-14.5 9q-16 8 -41 23.5t-35 23.5q23 37 35 73t12 65q-4 39 -36.5 60.5t-63.5 21.5h-6q-33 -4 -54.5 -36t-21.5 -59q0 -45 20.5 -74.5t51.5 -56.5l-17 -24q-10 -16 -22 -36t-22.5 -36t-17.5 -28.5t-15.5 -26t-19.5 -31.5t-30 -49l2 2q-6 -6 -6 -14zM98 655q0 14 9.5 26.5 t19.5 14.5h10q12 0 24.5 -9t12.5 -19v-11q0 -16 -8 -37.5t-21 -48.5v2l-6 -6l-12 13q-16 16 -22.5 35.5t-6.5 39.5zM178 530q-2 1 -2 1.5t2 0.5v-2zM186 94q0 43 50 56q25 6 55.5 7t64.5 1h58l-2 -6q-23 -47 -61 -78t-75 -31q-31 0 -60.5 15.5t-29.5 35.5z" />
<glyph unicode="t" horiz-adv-x="585" d="M-41 745q0 -22 27 -22h145v-209q-33 -63 -72 -115.5t-79 -99.5q-6 -6 -7 -14q0 -16 9 -21q4 -4 10 -5t8 -1q10 0 18 8q59 70 113 150v-273q0 -39 16.5 -66.5t41 -46t54 -27.5t56.5 -9q55 0 96 22.5t77 59.5t66.5 87t63.5 105q0 4 2 8.5t2 8.5q0 10 -14 20l2 -4 q-6 6 -14 6q-6 0 -13.5 -2t-11.5 -12q-63 -115 -118.5 -182.5t-137.5 -67.5q-41 0 -79 26.5t-38 73.5v580h185q8 0 16 6t8 16t-8 18.5t-16 8.5h-185v404q0 10 -7 18t-17 8t-18.5 -8t-8.5 -18v-404h-145q-10 0 -18.5 -8t-8.5 -19z" />
<glyph unicode="u" horiz-adv-x="942" d="M-31 182q0 -43 16.5 -77.5t43 -59.5t57.5 -38t61 -13q63 0 131 44t128 103q23 23 45 50.5t38 52.5v-107q0 -29 16.5 -55.5t42 -46t54 -30.5t53.5 -11q59 0 102.5 26.5t78.5 67.5q33 41 55 74t43 63q6 10 13 20.5t14 20.5h-3q4 6 5 15q0 16 -15 24q-6 2 -10 2q-8 0 -13 -3 t-7 -5q-4 -8 -9.5 -12t-9.5 -13q-29 -47 -55.5 -88t-44.5 -63q-31 -35 -66 -57.5t-78 -22.5q-18 0 -38.5 8t-38 21.5t-28.5 30t-11 34.5v211v8v246q0 27 -23 27q-27 0 -27 -27v-242v-4v-6q-4 -18 -32 -63h4q-18 -27 -41 -54.5t-51 -56.5q-53 -53 -113.5 -93t-108.5 -40 q-20 0 -42.5 10t-42 28.5t-32 44.5t-12.5 56v424q0 8 -8 17.5t-18 9.5t-16.5 -9.5t-6.5 -17.5v-424z" />
<glyph unicode="v" horiz-adv-x="1132" d="M-31 281q0 -14 8 -17q4 -4 9.5 -5t9.5 -1q6 0 11 1t9 9q23 29 46.5 61.5t46.5 67.5q8 10 14 21.5t12 19.5q70 94 90 94q29 0 37 -69q2 -25 2 -51v-56q0 -16 1 -35.5t1 -35.5q4 -129 75.5 -210t182.5 -81q98 0 163 56t95 134l2 6l7 -4q31 -16 65.5 -23t69.5 -7 q94 0 142 34.5t79 81.5q4 4 5 9.5t1 7.5q0 16 -10 20l2 -2q-6 6 -15 6q-6 0 -12 -3t-8 -5q-27 -41 -66.5 -70.5t-117.5 -29.5q-61 0 -107 26l-16 9l2 6q8 27 14 56.5t10 57.5v27q0 29 -7 64.5t-21.5 66.5t-38 52.5t-55.5 21.5q-25 0 -45.5 -15.5t-35 -39t-21.5 -49t-7 -46.5 q0 -59 39 -120.5t98 -102.5l6 -2l-6 -14q-29 -66 -80 -113t-131 -47q-84 0 -143 66.5t-64 177.5q0 41 -1 89t-5 89t-22.5 79t-63.5 38q-33 0 -65.5 -36t-61.5 -77q-10 -14 -21 -28.5t-20 -30.5l2 2q-23 -31 -41 -60.5t-41 -52.5q-8 -8 -8 -18zM647 442q0 33 18.5 66t41.5 33 q33 0 51 -46t18 -98v-26q-2 -29 -5 -54.5t-13 -52.5q-47 33 -79 82t-32 96z" />
<glyph unicode="w" horiz-adv-x="1624" d="M-31 281q0 -14 8 -17q4 -4 9.5 -5t9.5 -1q6 0 11 1t9 9q18 23 41 52.5t45 60.5q12 12 20.5 25.5t18.5 23.5q33 41 58.5 64.5t42.5 23.5q4 0 7 -11t7 -42q2 -12 2 -27v-26v-78q0 -63 19.5 -123.5t53.5 -109t81 -78t104 -29.5q78 0 124 46t81 116q10 29 22.5 59.5 t18.5 65.5q10 -59 31.5 -111.5t54.5 -91.5t76 -61.5t96 -22.5q78 0 142.5 50t103.5 128l8 18l6 -4q33 -23 68.5 -32t76.5 -9q78 0 133.5 36t83.5 91q2 2 3 13q0 10 -15 20q-6 2 -12 2t-13.5 -2t-9.5 -12q-23 -41 -63.5 -68.5t-106.5 -27.5t-122 36l-9 5l2 6q16 43 24.5 86 t8.5 82q0 31 -8 66.5t-23.5 65t-41 50t-58.5 20.5q-23 0 -43 -16t-34.5 -38.5t-22.5 -48.5t-8 -46q0 -68 36.5 -133.5t98.5 -106.5l4 -8l-10 -20q-31 -66 -83.5 -110t-115.5 -44q-55 0 -97 36t-71 94t-44 135t-17 161q-4 20 -27 20q-27 0 -27 -24q-8 -78 -23.5 -153.5 t-41 -135t-63.5 -96.5t-93 -37q-43 0 -81 24.5t-65.5 64.5t-43 93.5t-15.5 108.5v63q0 37 -4 72t-17.5 66.5t-47.5 31.5q-35 0 -70 -33.5t-70 -70.5l-51 -72q-41 -53 -74 -92q-8 -8 -8 -18zM1143 465q0 35 18.5 65.5t36.5 30.5q35 0 56.5 -47t21.5 -102q0 -33 -6 -71 t-21 -75l-2 6q-47 31 -75.5 84.5t-28.5 108.5z" />
<glyph unicode="x" horiz-adv-x="1187" d="M-31 285q0 -20 15 -25q6 -2 12 -2q12 0 20 8q8 14 17.5 28.5t19.5 27.5q29 41 57.5 80.5t59.5 74.5q41 47 82 76t82 29q33 0 64.5 -21.5t58 -55.5t44 -77t23.5 -86v-14l-26 -2q-53 -8 -104.5 -16.5t-90.5 -24.5q-59 -23 -97 -59t-38 -97q0 -29 14.5 -53.5t38 -43 t51 -28.5t52.5 -10h4q37 0 71.5 15.5t63.5 42t52.5 61t35.5 71.5q16 -39 46 -73.5t66.5 -60t78.5 -41t83 -15.5q66 0 120 26.5t100.5 66.5t85 88t73.5 91q4 4 4 8v11q0 6 -1 11t-9 9l2 -4q-6 6 -14 6q-6 0 -12.5 -3t-8.5 -5q-35 -47 -71.5 -92t-77.5 -82t-88 -59.5 t-103 -22.5q-41 0 -84 20.5t-78.5 53.5t-59 73.5t-25.5 81.5v13q10 2 16 2q8 0 18 2h-2q63 10 122 20t106 31q57 23 96 60.5t39 103.5q0 37 -21.5 59.5t-51.5 35.5t-63.5 18.5t-58.5 5.5q-86 0 -144.5 -57.5t-82.5 -135.5v2q-12 39 -34.5 75t-51.5 63.5t-62.5 45t-68.5 17.5 q-59 0 -108.5 -37t-90.5 -84q-29 -31 -55.5 -66.5t-48.5 -70.5q-14 -20 -29.5 -41t-30.5 -39q0 -2 -1 -5t-1 -5zM217 129q0 35 21.5 59.5t59.5 41t89 26.5t111 18l26 5v-5q-4 -41 -23.5 -82.5t-47 -74.5t-61 -53.5t-68.5 -20.5q-18 0 -37 7t-34 19.5t-25.5 28t-10.5 31.5z M580 336v6q6 41 22 83t42 74.5t59.5 53t74.5 20.5q49 0 96.5 -16t47.5 -53t-21.5 -63.5t-58.5 -45t-88.5 -30t-112.5 -19.5z" />
<glyph unicode="y" horiz-adv-x="966" d="M-31 227q0 -51 20.5 -94t53.5 -73.5t71 -48t74 -17.5q109 0 192 58.5t148 146.5v-322l-24 -20q-55 -47 -104.5 -95.5t-85 -100.5t-56 -109.5t-20.5 -122.5q0 -29 12 -62t34.5 -60.5t53.5 -46t68 -18.5q35 0 65.5 19.5t54 48t38 64.5t14.5 67v414l20 20 q102 86 204.5 182.5t180.5 216.5q0 4 2 8.5t2 6.5q0 14 -14 24l2 -4q-6 6 -14 6q-6 0 -13.5 -2t-9.5 -12v4q-70 -111 -154 -193.5t-170 -158.5l-36 -33v365v2v327q0 10 -8.5 18.5t-18.5 8.5t-16.5 -8t-6.5 -19v-319l-6 -6q-70 -109 -149.5 -177.5t-184.5 -68.5 q-29 0 -58.5 13.5t-54 38t-40 58t-15.5 74.5v375q0 14 -8 20.5t-16 6.5q-27 0 -27 -27v-375zM291 -571q0 102 55 186t146 162l36 37v-373q0 -25 -10 -51.5t-27.5 -48t-39.5 -36t-45 -14.5t-43.5 12.5t-37 33t-25.5 45t-9 47.5z" />
<glyph unicode="z" horiz-adv-x="794" d="M-31 285q0 -14 13 -27h8q16 0 26 14q16 33 36 57.5t38 47.5q27 35 49.5 68.5t38.5 64.5l10 25q35 -10 75 -12.5t75 -2.5h35q16 0 30 -2l9 -4l-4 -8q-18 -41 -50 -96.5t-69 -110.5t-78 -105.5t-78 -78.5q-8 -8 -8 -21q0 -25 22 -24q35 4 57.5 7t43.5 7q16 4 34.5 8t34.5 4 q47 -2 91.5 -36.5t66.5 -88.5l6 -10l-94 -104q-100 -113 -166.5 -231t-66.5 -247q0 -27 7 -60.5t22.5 -64t40 -52t57.5 -21.5q29 0 57.5 19.5t54 53t48 77.5t40.5 94q37 96 61.5 206.5t24.5 202.5q0 27 -4 52.5t-14 50.5l-8 16l88 94q49 55 94 111.5t86 113.5q6 6 6 15 q0 6 -3 11t-5 9q-6 6 -14 6q-18 0 -25 -14l4 2q-41 -55 -86 -111.5t-96 -109.5l-74 -80l-22 39h2q-29 47 -77 76.5t-102 29.5q-25 0 -44 -3t-40 -7l-10 -4q43 45 83 102.5t74 115t58.5 105.5t34.5 76q2 2 2 11q0 20 -22 20h2q-37 10 -99 10q-35 2 -70.5 4.5t-70.5 6.5h-6 l4 4q6 20 8 39.5t2 44.5q0 12 -3 29.5t-11 34t-21.5 27.5t-33.5 11q-41 0 -69 -35t-28 -69q0 -86 76 -115l6 -2l-12 -25q-16 -31 -34.5 -57.5t-37.5 -52.5q-25 -31 -47 -61.5t-39 -61.5v-8zM106 668q0 20 15.5 37.5t32.5 17.5q6 0 13 -16.5t7 -36.5q0 -16 -2 -36t-12 -38 q-25 12 -39.5 28.5t-14.5 43.5zM207 -621q0 119 63.5 230.5t157.5 218.5l74 82q6 -20 10 -40t4 -36q0 -86 -23.5 -191.5t-58.5 -201.5q-39 -98 -78.5 -154.5t-74.5 -56.5q-16 0 -30.5 14.5t-24 37t-14.5 48t-5 49.5z" />
<glyph unicode="&#xa0;" />
<glyph unicode="&#xa1;" horiz-adv-x="497" d="M168 35q-4 -16 3 -26.5t17.5 -13.5t21.5 2t15 21q39 123 57.5 250t25.5 256t4 258t-7 256q0 16 -10 23.5t-21.5 6.5t-20.5 -9t-9 -25q6 -125 8 -251t-5 -251.5t-25.5 -250.5t-53.5 -246zM207 1290q0 -29 19.5 -47t47.5 -18q29 0 48.5 18t19.5 47t-19.5 46.5t-48.5 17.5 t-48 -17.5t-19 -46.5z" />
<glyph unicode="&#xa2;" horiz-adv-x="731" d="M-23 289q0 -57 30 -108.5t77 -90.5t104.5 -64.5t114.5 -31.5v-166q0 -12 7 -19.5t16 -7.5q10 0 18 7.5t8 19.5v164q63 2 124 24.5t112 59.5t92 87t70 105q4 4 4 13q0 14 -15 24h-10q-6 0 -14 -3t-13 -13q-27 -51 -63.5 -95t-81.5 -77t-97 -53.5t-108 -22.5v526 q25 -2 49.5 -9t47.5 -17h8q14 0 24 14q2 4 2 12q0 10 -4 13.5t-10 7.5q-25 14 -54.5 20t-62.5 8v162q0 12 -8 19.5t-18 7.5q-8 0 -15.5 -7.5t-7.5 -19.5v-164q-59 -6 -115.5 -28.5t-101.5 -62.5t-74.5 -95t-34.5 -127v-12zM27 293v6q4 59 29.5 106.5t63.5 81t86 53t97 25.5 v-522q-49 6 -98 29.5t-89 57.5t-64.5 76t-24.5 87z" />
<glyph unicode="&#xa3;" horiz-adv-x="1341" d="M12 158q0 -31 16.5 -60.5t41 -53.5t55.5 -37t61 -13h2q78 4 149 55t109 127l15 29l26 -12l66 -32t63 -32q90 -49 179.5 -89t189.5 -40q123 0 217 78t160 196q2 4 2 13q0 10 -4 13t-10 7q-4 2 -13 2q-6 0 -13 -2t-9 -12q-57 -111 -141 -176.5t-189 -69.5q-86 0 -170 38 t-174 85q-35 18 -69.5 36.5t-73.5 35.5l-17 8l13 41q2 10 3 20.5t1 20.5q0 4 2 10t2 10v21q0 53 -5 103t-16 104h209q12 0 19.5 7t7.5 15q0 10 -7.5 18.5t-19.5 8.5h-217q-4 12 -6 24.5t-4 26.5l-6 31h180q12 0 19.5 7t7.5 15q0 10 -7.5 18.5t-19.5 8.5h-188 q-8 53 -14.5 103t-6.5 104q0 63 34 127.5t87 117t119.5 84t132.5 31.5q45 0 96 -15.5t96 -39t75 -54t30 -61.5v-6q0 -25 24 -25q8 0 17.5 7.5t9.5 17.5v6q0 45 -36 85t-88 69.5t-111.5 47t-108.5 17.5h-4q-74 0 -148.5 -35.5t-136 -93t-99.5 -131.5t-38 -147v-2 q0 -55 5 -106.5t13 -100.5h-159q-12 0 -19.5 -8.5t-7.5 -18.5q0 -8 7.5 -15t19.5 -7h168q2 -10 3 -21.5t5 -21.5q2 -10 4 -19.5t4 -19.5h-176q-12 0 -19.5 -8.5t-7.5 -18.5q0 -8 7 -15t20 -7h182q10 -53 15.5 -104.5t5.5 -102.5v-21q0 -27 -7 -53v4l-8 -33l-35 17 q-96 45 -211 45q-31 -2 -62.5 -17.5t-56 -40t-41 -54t-16.5 -60.5v-4zM63 158q0 23 11.5 44t30 38.5t41 29t44.5 11.5q49 0 100.5 -9.5t100.5 -31.5l23 -15l-15 -28q-31 -66 -90.5 -108t-120.5 -46h-2q-23 0 -44 10t-38.5 26.5t-29 37t-11.5 41.5z" />
<glyph unicode="&#xa5;" horiz-adv-x="833" d="M33 1296q0 -10 4 -14l399 -649v-217h-117q-14 0 -20 -7.5t-6 -17.5t6 -17t20 -7h117v-60h-117q-14 0 -20 -7t-6 -17t6 -17.5t20 -7.5h117v-233q0 -14 7.5 -20.5t17.5 -6.5t17 6t7 21v233h129q12 0 19.5 7t7.5 18q0 10 -7 17t-20 7h-129v60h129q12 0 19.5 7t7.5 17 t-7 17.5t-20 7.5h-129v207q0 2 2 4l304 661q2 4 2 12q0 10 -7.5 16.5t-17.5 6.5q-16 0 -23 -14l-286 -623l-381 621q-10 12 -23 12q-23 0 -22 -23z" />
<glyph unicode="&#xa7;" d="M279 1532q0 29 19 47t48 18t48.5 -18t19.5 -47t-19.5 -46.5t-48.5 -17.5t-48 17.5t-19 46.5zM514 1528q0 29 19.5 47t48.5 18t48 -18.5t19 -46.5q0 -29 -19.5 -46.5t-47.5 -17.5q-29 0 -48.5 17.5t-19.5 46.5z" />
<glyph unicode="&#xa8;" d="M279 1518q0 23 15 37t38 14t38 -14.5t15 -36.5q0 -23 -15.5 -36.5t-37.5 -13.5q-23 0 -38 13.5t-15 36.5zM489 1513q0 23 15.5 37.5t38.5 14.5t38 -14.5t15 -37.5t-15.5 -36t-37.5 -13q-23 0 -38.5 13t-15.5 36z" />
<glyph unicode="&#xab;" horiz-adv-x="802" d="M37 649q0 -8 10 -18l336 -281q14 -10 27 -10q14 -2 26.5 5t12.5 17t-9 19l-321 266l301 266q6 4 6 15q0 10 -10 18t-25 8q-16 2 -35 -10l-313 -276q-6 -4 -6 -15v-4zM375 635q0 -7 8 -19l307 -262q14 -12 29 -12q14 0 25.5 6t11.5 17q0 10 -8 20l-291 250l270 266 q6 4 6 14t-10 18.5t-25 10.5q-20 0 -34 -12l-283 -279q-6 -4 -6 -14v-4z" />
<glyph unicode="&#xad;" horiz-adv-x="851" d="M127 637q0 -8 7.5 -15.5t19.5 -7.5h542q12 0 19.5 7.5t7.5 15.5q0 10 -7 18.5t-20 8.5h-542q-12 0 -19.5 -8.5t-7.5 -18.5z" />
<glyph unicode="&#xb4;" horiz-adv-x="1126" d="M379 1436q0 -27 29 -27h16q59 0 110.5 33t88.5 80q6 6 6 14q0 12 -9.5 20.5t-19.5 8.5q-14 -1 -22 -13q-29 -41 -67 -65.5t-85 -24.5h-18q-16 0 -22.5 -8t-6.5 -18z" />
<glyph unicode="&#xb5;" horiz-adv-x="942" d="M-33 -752q0 -12 7.5 -19t17.5 -7q8 0 16 7t8 19v811q27 -31 62 -48t69 -17q63 0 131 44t128 103q23 23 45 50.5t38 52.5v-107q0 -29 16.5 -55.5t42 -46t54.5 -30.5t53 -11q59 0 102.5 26.5t78.5 67.5q33 41 55 74t43 63q6 10 13 20.5t14 20.5h-3q4 6 5 15q0 16 -15 24 q-6 2 -10 2q-8 0 -13 -3t-7 -5q-4 -8 -9.5 -12t-9.5 -13q-29 -47 -55.5 -88t-44.5 -63q-31 -35 -66 -57.5t-78 -22.5q-18 0 -38.5 8t-38 21.5t-28.5 30t-11 34.5v465q0 27 -23 27q-27 0 -27 -27v-252q-4 -18 -32 -63h4q-18 -27 -41 -54.5t-51 -56.5q-53 -53 -113.5 -93 t-108.5 -40q-20 0 -42.5 10t-42 28.5t-32 44.5t-12.5 56v424q0 8 -8 17.5t-18 9.5t-16.5 -9.5t-6.5 -17.5z" />
<glyph unicode="&#xb8;" horiz-adv-x="1126" d="M420 -195q0 -16 10 -28.5t25.5 -20.5t33 -12t29.5 -4q45 0 83 26.5t38 69.5q0 16 -8 33.5t-21.5 33t-29 27t-29.5 11.5v55q0 27 -27 27q-8 0 -15 -4.5t-11 -16.5l-9 -92q0 -27 25 -27h4q4 2 14 2q20 0 35 -16t15 -35q0 -27 -22.5 -32t-43.5 -5q-12 0 -22.5 3t-20.5 14 l4 -7l-8 15q-10 14 -23 14q-10 0 -18 -9t-8 -22z" />
<glyph unicode="&#xbb;" horiz-adv-x="802" d="M35 365q0 10 8 20l291 250l-271 266q-6 4 -6 14t10.5 18.5t24.5 10.5q18 0 35 -12l283 -279q6 -4 6 -14v-4q0 -7 -8 -19l-308 -262q-16 -12 -28 -12q-14 0 -25.5 6t-11.5 17zM342 362q0 10 8 19l322 266l-301 266q-6 4 -6 15q0 10 10 18t24 8q16 2 35 -10l314 -276 q6 -4 6 -15v-4q-1 -8 -11 -18l-335 -281q-14 -10 -27 -10q-14 -2 -26.5 5t-12.5 17z" />
<glyph unicode="&#xbf;" horiz-adv-x="913" d="M55 352q0 174 148 252l110 37q41 14 81 26.5t81 26.5q135 51 135 174v17q-4 39 -6 62.5t-2 33.5v6q0 33 33 33t33 -33q0 -12 2 -30.5t4 -38.5q2 -18 3 -35t1 -27q0 -43 -14 -78q-43 -102 -185 -151q-59 -20 -118.5 -39t-118.5 -37q-121 -61 -121 -199q0 -133 81 -211 t216 -78q133 0 233 76q111 82 111 201q0 61 -70 61q-8 0 -18 -1t-21 -3q-4 0 -6 -1t-6 -1q-27 0 -27 35q0 29 27.5 33t50.5 4q135 0 135 -127q0 -154 -135 -252q-125 -90 -274 -90q-162 0 -262 96q-100 94 -101 258zM555 1315q0 45 45 45q43 0 43 -45q0 -43 -43 -43 q-45 0 -45 43z" />
<glyph unicode="&#xc0;" horiz-adv-x="1632" d="M12 410q0 -78 33 -152t90.5 -133t137 -95t173.5 -36h21q76 2 175 42t197.5 114.5t184.5 182t139 247.5v-422q0 -31 16.5 -61.5t42 -53.5t56.5 -37t59 -14h11q45 0 88 23.5t80.5 62.5t70.5 89t62 101v11q0 8 -8.5 17t-18.5 9q-6 0 -12 -3t-8 -13q-20 -39 -45 -78 t-52.5 -72t-57.5 -56.5t-58 -33.5q-10 -2 -18.5 -4t-14.5 -2q-25 0 -49.5 9t-45 24.5t-34 38t-13.5 47.5v1147q0 8 -4 18t-20 12q-45 8 -87 10.5t-83 2.5q-154 0 -288 -41t-246.5 -111t-199.5 -163t-148.5 -198.5t-93.5 -215t-32 -213.5zM63 403q0 98 30 204t88.5 205 t141.5 188.5t189 157t234 106.5t276 39q35 0 68.5 -3.5t72.5 -7.5q-2 -197 -3 -304t-1 -159v-57v-8q-31 -170 -112.5 -303t-185 -224.5t-211 -140.5t-187.5 -53h-14q-82 0 -153 31.5t-122 83t-81 116t-30 129.5zM899 1528q0 -17 16 -25l181 -96q6 -6 12 -6q12 0 21.5 9 t9.5 22q0 14 -17 24l-180 96q-8 4 -12 4q-12 0 -21.5 -8t-9.5 -20z" />
<glyph unicode="&#xc1;" horiz-adv-x="1632" d="M12 410q0 -78 33 -152t90.5 -133t137 -95t173.5 -36h21q76 2 175 42t197.5 114.5t184.5 182t139 247.5v-422q0 -31 16.5 -61.5t42 -53.5t56.5 -37t59 -14h11q45 0 88 23.5t80.5 62.5t70.5 89t62 101v11q0 8 -8.5 17t-18.5 9q-6 0 -12 -3t-8 -13q-20 -39 -45 -78 t-52.5 -72t-57.5 -56.5t-58 -33.5q-10 -2 -18.5 -4t-14.5 -2q-25 0 -49.5 9t-45 24.5t-34 38t-13.5 47.5v1147q0 8 -4 18t-20 12q-45 8 -87 10.5t-83 2.5q-154 0 -288 -41t-246.5 -111t-199.5 -163t-148.5 -198.5t-93.5 -215t-32 -213.5zM63 403q0 98 30 204t88.5 205 t141.5 188.5t189 157t234 106.5t276 39q35 0 68.5 -3.5t72.5 -7.5q-2 -197 -3 -304t-1 -159v-57v-8q-31 -170 -112.5 -303t-185 -224.5t-211 -140.5t-187.5 -53h-14q-82 0 -153 31.5t-122 83t-81 116t-30 129.5zM895 1436q0 -27 29 -27h16q59 0 110.5 33t88.5 80q6 6 6 14 q0 12 -9.5 20.5t-19.5 8.5q-14 -1 -22 -13q-29 -41 -67 -65.5t-85 -24.5h-18q-16 0 -22.5 -8t-6.5 -18z" />
<glyph unicode="&#xc2;" horiz-adv-x="1632" d="M12 410q0 -78 33 -152t90.5 -133t137 -95t173.5 -36h21q76 2 175 42t197.5 114.5t184.5 182t139 247.5v-422q0 -31 16.5 -61.5t42 -53.5t56.5 -37t59 -14h11q45 0 88 23.5t80.5 62.5t70.5 89t62 101v11q0 8 -8.5 17t-18.5 9q-6 0 -12 -3t-8 -13q-20 -39 -45 -78 t-52.5 -72t-57.5 -56.5t-58 -33.5q-10 -2 -18.5 -4t-14.5 -2q-25 0 -49.5 9t-45 24.5t-34 38t-13.5 47.5v1147q0 8 -4 18t-20 12q-45 8 -87 10.5t-83 2.5q-154 0 -288 -41t-246.5 -111t-199.5 -163t-148.5 -198.5t-93.5 -215t-32 -213.5zM63 403q0 98 30 204t88.5 205 t141.5 188.5t189 157t234 106.5t276 39q35 0 68.5 -3.5t72.5 -7.5q-2 -197 -3 -304t-1 -159v-57v-8q-31 -170 -112.5 -303t-185 -224.5t-211 -140.5t-187.5 -53h-14q-82 0 -153 31.5t-122 83t-81 116t-30 129.5zM850 1430q0 -27 24 -27q11 0 17 6l135 84l125 -92q6 -6 16 -6 q12 0 19.5 9t7.5 19q0 14 -10 23l-133 98q-6 6 -17 6q-4 0 -6 -1t-4 -1h-2q-12 0 -16 -4l-144 -90q-12 -12 -12 -24z" />
<glyph unicode="&#xc3;" horiz-adv-x="1632" d="M12 410q0 -78 33 -152t90.5 -133t137 -95t173.5 -36h21q76 2 175 42t197.5 114.5t184.5 182t139 247.5v-422q0 -31 16.5 -61.5t42 -53.5t56.5 -37t59 -14h11q45 0 88 23.5t80.5 62.5t70.5 89t62 101v11q0 8 -8.5 17t-18.5 9q-6 0 -12 -3t-8 -13q-20 -39 -45 -78 t-52.5 -72t-57.5 -56.5t-58 -33.5q-10 -2 -18.5 -4t-14.5 -2q-25 0 -49.5 9t-45 24.5t-34 38t-13.5 47.5v1147q0 8 -4 18t-20 12q-45 8 -87 10.5t-83 2.5q-154 0 -288 -41t-246.5 -111t-199.5 -163t-148.5 -198.5t-93.5 -215t-32 -213.5zM63 403q0 98 30 204t88.5 205 t141.5 188.5t189 157t234 106.5t276 39q35 0 68.5 -3.5t72.5 -7.5q-2 -197 -3 -304t-1 -159v-57v-8q-31 -170 -112.5 -303t-185 -224.5t-211 -140.5t-187.5 -53h-14q-82 0 -153 31.5t-122 83t-81 116t-30 129.5zM809 1444q0 -23 8 -40.5t25 -17.5q10 0 18 6.5t8 22.5v12 q0 8 -4 17q4 25 23.5 36t42.5 11q25 0 47 -14.5t27 -40.5q16 -29 41.5 -40.5t54.5 -11.5q49 0 91 31t42 82q0 18 -6 36.5t-25 18.5q-10 0 -19 -7t-9 -21v-2q2 -6 4 -11.5t2 -9.5q0 -29 -25 -46t-53 -17q-18 0 -34.5 8t-23.5 31q-16 35 -47.5 52t-66.5 17q-47 0 -84 -26.5 t-37 -75.5z" />
<glyph unicode="&#xc4;" horiz-adv-x="1632" d="M12 410q0 -78 33 -152t90.5 -133t137 -95t173.5 -36h21q76 2 175 42t197.5 114.5t184.5 182t139 247.5v-422q0 -31 16.5 -61.5t42 -53.5t56.5 -37t59 -14h11q45 0 88 23.5t80.5 62.5t70.5 89t62 101v11q0 8 -8.5 17t-18.5 9q-6 0 -12 -3t-8 -13q-20 -39 -45 -78 t-52.5 -72t-57.5 -56.5t-58 -33.5q-10 -2 -18.5 -4t-14.5 -2q-25 0 -49.5 9t-45 24.5t-34 38t-13.5 47.5v1147q0 8 -4 18t-20 12q-45 8 -87 10.5t-83 2.5q-154 0 -288 -41t-246.5 -111t-199.5 -163t-148.5 -198.5t-93.5 -215t-32 -213.5zM63 403q0 98 30 204t88.5 205 t141.5 188.5t189 157t234 106.5t276 39q35 0 68.5 -3.5t72.5 -7.5q-2 -197 -3 -304t-1 -159v-57v-8q-31 -170 -112.5 -303t-185 -224.5t-211 -140.5t-187.5 -53h-14q-82 0 -153 31.5t-122 83t-81 116t-30 129.5zM862 1518q0 23 15.5 37t37.5 14q23 0 38.5 -14.5t15.5 -36.5 q0 -23 -15.5 -36.5t-38.5 -13.5t-38 13.5t-15 36.5zM1073 1513q0 23 15.5 37.5t37.5 14.5q23 0 38.5 -14.5t15.5 -37.5t-15.5 -36t-38.5 -13t-38 13t-15 36z" />
<glyph unicode="&#xc5;" horiz-adv-x="1632" d="M12 410q0 -78 33 -152t90.5 -133t137 -95t173.5 -36h21q76 2 175 42t197.5 114.5t184.5 182t139 247.5v-422q0 -31 16.5 -61.5t42 -53.5t56.5 -37t59 -14h11q45 0 88 23.5t80.5 62.5t70.5 89t62 101v11q0 8 -8.5 17t-18.5 9q-6 0 -12 -3t-8 -13q-20 -39 -45 -78 t-52.5 -72t-57.5 -56.5t-58 -33.5q-10 -2 -18.5 -4t-14.5 -2q-25 0 -49.5 9t-45 24.5t-34 38t-13.5 47.5v1147q0 8 -4 18t-20 12q-45 8 -87 10.5t-83 2.5q-154 0 -288 -41t-246.5 -111t-199.5 -163t-148.5 -198.5t-93.5 -215t-32 -213.5zM63 403q0 98 30 204t88.5 205 t141.5 188.5t189 157t234 106.5t276 39q35 0 68.5 -3.5t72.5 -7.5q-2 -197 -3 -304t-1 -159v-57v-8q-31 -170 -112.5 -303t-185 -224.5t-211 -140.5t-187.5 -53h-14q-82 0 -153 31.5t-122 83t-81 116t-30 129.5zM952 1462q0 -27 17 -51q16 -16 31.5 -23.5t56.5 -7.5 q37 0 65.5 27t28.5 61q0 41 -28.5 64.5t-61.5 23.5q-41 0 -75 -26.5t-34 -67.5zM1008 1460q0 20 14 30.5t33 10.5q23 0 35 -12q2 -4 4 -10t2 -13q0 -16 -14.5 -22t-28.5 -6q-18 0 -30.5 3t-14.5 19z" />
<glyph unicode="&#xc6;" horiz-adv-x="2322" d="M0 410q0 -78 33 -152t90 -133t137 -95t174 -36h21q70 2 156.5 35.5t177 95t173 152t144.5 204.5v-16q0 -123 36 -206t95 -137t135 -84t155 -43t154.5 -15.5t135.5 -2.5q76 0 153.5 21.5t148 59.5t130 90.5t98.5 111.5q0 4 1 8t1 6q0 16 -14 25q-2 2 -11 2q-20 0 -24 -14 q-37 -53 -90 -100.5t-117.5 -83t-135.5 -56t-140 -20.5q-59 -2 -131 0t-144 14t-140.5 38.5t-120.5 77t-86 126t-36 186.5q-2 47 11 93t42 83l7 6q18 27 39.5 51.5t50.5 47.5q135 -113 307 -113q33 0 74 9t75.5 28.5t59 49.5t24.5 69t-25.5 66.5t-62.5 45t-76.5 24.5 t-68.5 7q-72 0 -153 -31t-152 -88q-57 53 -80 103.5t-23 97.5q0 63 45 120.5t114 99.5t150.5 66.5t153.5 24.5q80 0 139.5 -10t103.5 -27.5t76.5 -39t61.5 -46.5q10 -10 14 -10t8.5 2t8.5 4q10 14 10 25q0 4 -10 14q-31 29 -68 54.5t-85 44t-111.5 29.5t-147.5 11 q-59 0 -125.5 -16t-131 -46t-121 -71t-91.5 -92v154q0 8 -4 18t-20 12q-45 8 -87 10.5t-83 2.5q-154 0 -288 -41t-247 -111t-200 -163t-148.5 -198.5t-93 -215t-31.5 -213.5zM51 403q0 98 30 204t88 205t141 188.5t189.5 157t234.5 106.5t276 39q35 0 68.5 -3.5t72.5 -7.5 q-2 -197 -3 -304t-1 -159v-57v-8q-31 -170 -113 -303t-185.5 -224.5t-211 -140.5t-186.5 -53h-15q-82 0 -152.5 31.5t-121.5 83t-81 116t-30 129.5zM1202 709v155q14 -23 31 -43.5t37 -36.5q-18 -18 -34.5 -36.5t-33.5 -38.5zM1352 780q76 59 142.5 83t121.5 24 q29 0 61.5 -6.5t60 -18.5t45 -29.5t17.5 -39.5q0 -23 -17.5 -41.5t-45 -32.5t-60 -22.5t-61.5 -8.5q-55 0 -116.5 17.5t-147.5 74.5z" />
<glyph unicode="&#xc7;" horiz-adv-x="1280" d="M43 647q0 -154 56.5 -277.5t151.5 -212.5t219 -137.5t259 -48.5h6q186 2 323.5 82t237.5 211q6 4 7 15q0 6 -3.5 9t-5.5 7q-4 4 -9 5t-9 1q-6 0 -11 -1t-10 -11q-90 -115 -218 -190.5t-302 -78.5q-127 0 -243.5 44.5t-204.5 126t-141.5 196.5t-53.5 254q0 129 56.5 251 t148.5 217t209 152.5t237 57.5q84 0 138.5 -12.5t92.5 -33t63.5 -48t49.5 -58.5q2 -8 17 -8q4 0 9 1t9 5q2 2 5 6.5t3 10.5q0 4 -1 8t-1 6q-31 37 -60.5 68.5t-71.5 55t-102 38t-151 14.5q-133 0 -259 -62.5t-224 -164t-157.5 -231.5t-59.5 -267zM625 -215q0 -16 10 -28.5 t25.5 -20.5t33 -12.5t29.5 -4.5q45 0 83 27t38 70q0 16 -8.5 33.5t-21.5 33t-28.5 26.5t-29.5 11v55q0 27 -27 27q-8 0 -15.5 -4t-11.5 -16l-8 -93q0 -27 25 -26h4q4 2 14 2q20 0 34.5 -16.5t14.5 -34.5q0 -27 -22.5 -32t-42.5 -5q-12 0 -22.5 3t-20.5 13l4 -6l-8 14 q-10 14 -23 15q-10 0 -18 -9.5t-8 -21.5z" />
<glyph unicode="&#xc8;" horiz-adv-x="1230" d="M12 465q0 -106 70 -195.5t175 -154t230 -101.5t236 -37q76 0 153.5 23t148.5 60.5t130 89t98 110.5q0 4 1 8t1 6q0 16 -14 25q-2 2 -10 2q-20 0 -25 -14q-37 -53 -91 -100.5t-118.5 -83t-135 -56t-138.5 -20.5q-100 0 -216 33.5t-214 93t-164 139.5t-66 172 q0 72 40 149.5t112 135.5q135 -113 307 -113q33 0 74 9t76 28.5t59.5 49.5t24.5 69t-25.5 66.5t-62.5 45t-77 24.5t-69 7q-72 0 -152.5 -31t-152.5 -88q-57 53 -79.5 103.5t-22.5 97.5q0 63 45 120.5t113.5 99.5t150.5 66.5t154 24.5q80 0 139 -10t103 -27.5t77 -39 t61 -46.5q10 -10 15 -10q4 0 8 2l8 4q10 14 10 25q0 4 -10 14q-31 29 -67.5 54.5t-85 44t-111.5 29.5t-147 11q-76 0 -166 -27.5t-167 -74.5t-129.5 -113.5t-52.5 -146.5q2 -66 32 -126.5t81 -107.5q-68 -66 -116 -148.5t-48 -170.5zM258 780q76 59 142.5 83t121.5 24 q29 0 61.5 -6.5t60.5 -18.5t45.5 -29.5t17.5 -39.5q0 -23 -17.5 -41.5t-45.5 -32.5t-60.5 -22.5t-61.5 -8.5q-55 0 -116.5 17.5t-147.5 74.5zM459 1528q0 -17 16 -25l180 -96q6 -6 13 -6q12 0 21 9t9 22q0 14 -16 24l-180 96q-8 4 -13 4q-12 0 -21 -8t-9 -20z" />
<glyph unicode="&#xc9;" horiz-adv-x="1230" d="M12 465q0 -106 70 -195.5t175 -154t230 -101.5t236 -37q76 0 153.5 23t148.5 60.5t130 89t98 110.5q0 4 1 8t1 6q0 16 -14 25q-2 2 -10 2q-20 0 -25 -14q-37 -53 -91 -100.5t-118.5 -83t-135 -56t-138.5 -20.5q-100 0 -216 33.5t-214 93t-164 139.5t-66 172 q0 72 40 149.5t112 135.5q135 -113 307 -113q33 0 74 9t76 28.5t59.5 49.5t24.5 69t-25.5 66.5t-62.5 45t-77 24.5t-69 7q-72 0 -152.5 -31t-152.5 -88q-57 53 -79.5 103.5t-22.5 97.5q0 63 45 120.5t113.5 99.5t150.5 66.5t154 24.5q80 0 139 -10t103 -27.5t77 -39 t61 -46.5q10 -10 15 -10q4 0 8 2l8 4q10 14 10 25q0 4 -10 14q-31 29 -67.5 54.5t-85 44t-111.5 29.5t-147 11q-76 0 -166 -27.5t-167 -74.5t-129.5 -113.5t-52.5 -146.5q2 -66 32 -126.5t81 -107.5q-68 -66 -116 -148.5t-48 -170.5zM258 780q76 59 142.5 83t121.5 24 q29 0 61.5 -6.5t60.5 -18.5t45.5 -29.5t17.5 -39.5q0 -23 -17.5 -41.5t-45.5 -32.5t-60.5 -22.5t-61.5 -8.5q-55 0 -116.5 17.5t-147.5 74.5zM451 1436q0 -27 28 -27h17q59 0 110 33t88 80q6 6 6 14q0 12 -9 20.5t-19 8.5q-15 -1 -23 -13q-29 -41 -66.5 -65.5t-84.5 -24.5 h-19q-16 0 -22 -8t-6 -18z" />
<glyph unicode="&#xca;" horiz-adv-x="1230" d="M12 465q0 -106 70 -195.5t175 -154t230 -101.5t236 -37q76 0 153.5 23t148.5 60.5t130 89t98 110.5q0 4 1 8t1 6q0 16 -14 25q-2 2 -10 2q-20 0 -25 -14q-37 -53 -91 -100.5t-118.5 -83t-135 -56t-138.5 -20.5q-100 0 -216 33.5t-214 93t-164 139.5t-66 172 q0 72 40 149.5t112 135.5q135 -113 307 -113q33 0 74 9t76 28.5t59.5 49.5t24.5 69t-25.5 66.5t-62.5 45t-77 24.5t-69 7q-72 0 -152.5 -31t-152.5 -88q-57 53 -79.5 103.5t-22.5 97.5q0 63 45 120.5t113.5 99.5t150.5 66.5t154 24.5q80 0 139 -10t103 -27.5t77 -39 t61 -46.5q10 -10 15 -10q4 0 8 2l8 4q10 14 10 25q0 4 -10 14q-31 29 -67.5 54.5t-85 44t-111.5 29.5t-147 11q-76 0 -166 -27.5t-167 -74.5t-129.5 -113.5t-52.5 -146.5q2 -66 32 -126.5t81 -107.5q-68 -66 -116 -148.5t-48 -170.5zM258 780q76 59 142.5 83t121.5 24 q29 0 61.5 -6.5t60.5 -18.5t45.5 -29.5t17.5 -39.5q0 -23 -17.5 -41.5t-45.5 -32.5t-60.5 -22.5t-61.5 -8.5q-55 0 -116.5 17.5t-147.5 74.5zM406 1430q0 -27 24 -27q10 0 16 6l136 84l125 -92q6 -6 16 -6q12 0 19.5 9t7.5 19q0 14 -11 23l-133 98q-6 6 -16 6q-4 0 -6 -1 t-4 -1h-2q-12 0 -17 -4l-143 -90q-12 -12 -12 -24z" />
<glyph unicode="&#xcb;" horiz-adv-x="1230" d="M12 465q0 -106 70 -195.5t175 -154t230 -101.5t236 -37q76 0 153.5 23t148.5 60.5t130 89t98 110.5q0 4 1 8t1 6q0 16 -14 25q-2 2 -10 2q-20 0 -25 -14q-37 -53 -91 -100.5t-118.5 -83t-135 -56t-138.5 -20.5q-100 0 -216 33.5t-214 93t-164 139.5t-66 172 q0 72 40 149.5t112 135.5q135 -113 307 -113q33 0 74 9t76 28.5t59.5 49.5t24.5 69t-25.5 66.5t-62.5 45t-77 24.5t-69 7q-72 0 -152.5 -31t-152.5 -88q-57 53 -79.5 103.5t-22.5 97.5q0 63 45 120.5t113.5 99.5t150.5 66.5t154 24.5q80 0 139 -10t103 -27.5t77 -39 t61 -46.5q10 -10 15 -10q4 0 8 2l8 4q10 14 10 25q0 4 -10 14q-31 29 -67.5 54.5t-85 44t-111.5 29.5t-147 11q-76 0 -166 -27.5t-167 -74.5t-129.5 -113.5t-52.5 -146.5q2 -66 32 -126.5t81 -107.5q-68 -66 -116 -148.5t-48 -170.5zM258 780q76 59 142.5 83t121.5 24 q29 0 61.5 -6.5t60.5 -18.5t45.5 -29.5t17.5 -39.5q0 -23 -17.5 -41.5t-45.5 -32.5t-60.5 -22.5t-61.5 -8.5q-55 0 -116.5 17.5t-147.5 74.5zM422 1518q0 23 15.5 37t37.5 14q23 0 38 -14.5t15 -36.5q0 -23 -15 -36.5t-38 -13.5t-38 13.5t-15 36.5zM633 1513q0 23 15.5 37.5 t37.5 14.5q23 0 38 -14.5t15 -37.5t-15 -36t-38 -13t-38 13t-15 36z" />
<glyph unicode="&#xcc;" d="M12 1030q0 -43 18.5 -93t51.5 -93t79 -71t101 -28q20 0 38.5 4.5t39.5 10.5q18 8 18 26v11q-10 14 -26 14h-6q-16 -8 -31.5 -10t-30.5 -2q-43 0 -80 21.5t-63.5 55t-42 74.5t-15.5 80q0 80 30 134.5t77 89t105.5 51t117.5 18.5q53 0 105.5 -18.5t105.5 -40.5 q55 -25 113.5 -43.5t120.5 -18.5q35 0 70.5 6t70.5 23q-16 -57 -21.5 -122t-5.5 -132q0 -74 5.5 -149.5t11.5 -149.5q4 -61 10 -118.5t6 -108.5q0 -76 -31.5 -152t-89 -136.5t-135.5 -98t-170 -37.5q-78 0 -148.5 17t-131 53t-104.5 88.5t-66 121.5q-4 6 -10.5 12.5 t-12.5 6.5q-27 -8 -27 -25q23 -76 70 -135.5t108.5 -101t131 -64.5t139.5 -23h51q100 0 188.5 40t152 106.5t99 150.5t35.5 170v7q0 59 -4 122.5t-8 128.5q-4 72 -9 145t-5 144q0 78 8 152t31 139v8q0 10 -7.5 18.5t-17.5 8.5q-8 0 -14 -6v2q-47 -31 -90.5 -43.5 t-81.5 -12.5q-55 0 -108.5 16.5t-107 39t-109.5 41t-118 18.5q-63 0 -130.5 -18.5t-123 -58.5t-91.5 -103.5t-36 -155.5v-6zM440 1528q1 -17 17 -25l180 -96q6 -6 12 -6q12 0 21.5 9t9.5 22q0 14 -16 24l-181 96q-8 4 -12 4q-12 0 -21.5 -8t-9.5 -20z" />
<glyph unicode="&#xcd;" d="M12 1030q0 -43 18.5 -93t51.5 -93t79 -71t101 -28q20 0 38.5 4.5t39.5 10.5q18 8 18 26v11q-10 14 -26 14h-6q-16 -8 -31.5 -10t-30.5 -2q-43 0 -80 21.5t-63.5 55t-42 74.5t-15.5 80q0 80 30 134.5t77 89t105.5 51t117.5 18.5q53 0 105.5 -18.5t105.5 -40.5 q55 -25 113.5 -43.5t120.5 -18.5q35 0 70.5 6t70.5 23q-16 -57 -21.5 -122t-5.5 -132q0 -74 5.5 -149.5t11.5 -149.5q4 -61 10 -118.5t6 -108.5q0 -76 -31.5 -152t-89 -136.5t-135.5 -98t-170 -37.5q-78 0 -148.5 17t-131 53t-104.5 88.5t-66 121.5q-4 6 -10.5 12.5 t-12.5 6.5q-27 -8 -27 -25q23 -76 70 -135.5t108.5 -101t131 -64.5t139.5 -23h51q100 0 188.5 40t152 106.5t99 150.5t35.5 170v7q0 59 -4 122.5t-8 128.5q-4 72 -9 145t-5 144q0 78 8 152t31 139v8q0 10 -7.5 18.5t-17.5 8.5q-8 0 -14 -6v2q-47 -31 -90.5 -43.5 t-81.5 -12.5q-55 0 -108.5 16.5t-107 39t-109.5 41t-118 18.5q-63 0 -130.5 -18.5t-123 -58.5t-91.5 -103.5t-36 -155.5v-6zM432 1436q0 -27 29 -27h16q59 0 110.5 33t88.5 80q6 6 6 14q0 12 -9 20.5t-20 8.5q-14 -1 -22 -13q-29 -41 -67 -65.5t-85 -24.5h-18 q-16 0 -22.5 -8t-6.5 -18z" />
<glyph unicode="&#xce;" d="M12 1030q0 -43 18.5 -93t51.5 -93t79 -71t101 -28q20 0 38.5 4.5t39.5 10.5q18 8 18 26v11q-10 14 -26 14h-6q-16 -8 -31.5 -10t-30.5 -2q-43 0 -80 21.5t-63.5 55t-42 74.5t-15.5 80q0 80 30 134.5t77 89t105.5 51t117.5 18.5q53 0 105.5 -18.5t105.5 -40.5 q55 -25 113.5 -43.5t120.5 -18.5q35 0 70.5 6t70.5 23q-16 -57 -21.5 -122t-5.5 -132q0 -74 5.5 -149.5t11.5 -149.5q4 -61 10 -118.5t6 -108.5q0 -76 -31.5 -152t-89 -136.5t-135.5 -98t-170 -37.5q-78 0 -148.5 17t-131 53t-104.5 88.5t-66 121.5q-4 6 -10.5 12.5 t-12.5 6.5q-27 -8 -27 -25q23 -76 70 -135.5t108.5 -101t131 -64.5t139.5 -23h51q100 0 188.5 40t152 106.5t99 150.5t35.5 170v7q0 59 -4 122.5t-8 128.5q-4 72 -9 145t-5 144q0 78 8 152t31 139v8q0 10 -7.5 18.5t-17.5 8.5q-8 0 -14 -6v2q-47 -31 -90.5 -43.5 t-81.5 -12.5q-55 0 -108.5 16.5t-107 39t-109.5 41t-118 18.5q-63 0 -130.5 -18.5t-123 -58.5t-91.5 -103.5t-36 -155.5v-6zM387 1430q0 -27 25 -27q10 0 16 6l135 84l125 -92q6 -6 17 -6q12 0 19 9t7 19q0 14 -10 23l-133 98q-6 6 -17 6q-4 0 -6 -1t-4 -1h-2q-12 0 -16 -4 l-144 -90q-12 -12 -12 -24z" />
<glyph unicode="&#xcf;" d="M12 1030q0 -43 18.5 -93t51.5 -93t79 -71t101 -28q20 0 38.5 4.5t39.5 10.5q18 8 18 26v11q-10 14 -26 14h-6q-16 -8 -31.5 -10t-30.5 -2q-43 0 -80 21.5t-63.5 55t-42 74.5t-15.5 80q0 80 30 134.5t77 89t105.5 51t117.5 18.5q53 0 105.5 -18.5t105.5 -40.5 q55 -25 113.5 -43.5t120.5 -18.5q35 0 70.5 6t70.5 23q-16 -57 -21.5 -122t-5.5 -132q0 -74 5.5 -149.5t11.5 -149.5q4 -61 10 -118.5t6 -108.5q0 -76 -31.5 -152t-89 -136.5t-135.5 -98t-170 -37.5q-78 0 -148.5 17t-131 53t-104.5 88.5t-66 121.5q-4 6 -10.5 12.5 t-12.5 6.5q-27 -8 -27 -25q23 -76 70 -135.5t108.5 -101t131 -64.5t139.5 -23h51q100 0 188.5 40t152 106.5t99 150.5t35.5 170v7q0 59 -4 122.5t-8 128.5q-4 72 -9 145t-5 144q0 78 8 152t31 139v8q0 10 -7.5 18.5t-17.5 8.5q-8 0 -14 -6v2q-47 -31 -90.5 -43.5 t-81.5 -12.5q-55 0 -108.5 16.5t-107 39t-109.5 41t-118 18.5q-63 0 -130.5 -18.5t-123 -58.5t-91.5 -103.5t-36 -155.5v-6zM401 1518q0 23 15.5 37t38.5 14t38 -14.5t15 -36.5q0 -23 -15.5 -36.5t-37.5 -13.5q-23 0 -38.5 13.5t-15.5 36.5zM612 1513q0 23 15.5 37.5 t38.5 14.5t38 -14.5t15 -37.5t-15.5 -36t-37.5 -13q-23 0 -38.5 13t-15.5 36z" />
<glyph unicode="&#xd0;" horiz-adv-x="1286" d="M12 895q0 -27 15 -33q14 0 21 4t15 13q39 80 97.5 159.5t134.5 143t168 103.5t196 40q125 0 235 -55.5t190.5 -147.5t128 -208.5t47.5 -239.5q0 -109 -35 -222.5t-97.5 -205.5t-149.5 -151.5t-190 -59.5q-39 0 -80.5 13t-84.5 31.5t-84 41t-78 41.5q33 70 50 149.5 t17 151.5q0 37 -3 74.5t-7 74.5h180q27 0 27 27q0 10 -6 18.5t-21 8.5h-186q0 8 -1 15t-1 15q-6 53 -11 105.5t-5 99.5q2 78 26.5 158t71.5 115q10 2 12 8t2 12q0 27 -26 27q-8 0 -15 -7q-33 -20 -55.5 -56t-36.5 -80t-21.5 -90t-9.5 -87q0 -53 10.5 -114.5t10.5 -120.5 h-178q-14 0 -21.5 -8.5t-7.5 -18.5q0 -27 29 -27h184q4 -39 6 -76.5t2 -72.5q0 -61 -13 -137t-50 -144q-84 41 -150 41q-25 -2 -52.5 -12t-51 -28.5t-39 -42t-15.5 -50.5q0 -37 15.5 -58.5t39 -32.5t48 -15t43.5 -4q55 0 101 36.5t83 98.5l13 -4q41 -20 79.5 -43t78.5 -41.5 t84 -29.5t97 -11q119 0 216.5 65.5t166 166.5t105.5 222t37 234q0 131 -51.5 257t-139.5 224t-206.5 158.5t-256.5 60.5q-115 0 -215 -43t-183 -110.5t-146.5 -153.5t-102.5 -172zM156 88q0 31 35.5 56.5t72.5 25.5q29 0 60.5 -7t66.5 -26q-29 -55 -63.5 -79.5t-75.5 -24.5 t-68.5 12t-27.5 43z" />
<glyph unicode="&#xd1;" horiz-adv-x="1603" d="M10 922q0 -6 5 -13.5t12 -9.5h10q14 0 22 14q27 68 63 142.5t81 137t95 103.5t103 41q41 0 76 -129q18 -61 27.5 -129.5t9.5 -117.5l-4 -232v-10l-6 -678q0 -23 24 -23q8 0 17.5 6.5t9.5 16.5l4 678q27 123 69 234.5t98 196.5t128 136t160 51h2q23 0 43 -15t36.5 -37.5 t27 -50.5t10.5 -54l-3 -987q0 -37 19.5 -71t49.5 -60.5t65.5 -43t70.5 -16.5t76 22.5t80 60.5t73.5 87t59.5 102v11q0 14 -14 22h-8q-6 0 -14.5 -2t-12.5 -12q-23 -51 -52.5 -95t-63.5 -76t-66.5 -50.5t-57.5 -18.5q-27 0 -53.5 12.5t-48 32t-35.5 45t-14 50.5v987 q0 31 -12.5 67.5t-36 68.5t-54 53.5t-67.5 21.5q-82 -2 -150.5 -40t-125 -101.5t-100.5 -148.5t-75 -179v39q0 57 -9 127.5t-26 134.5q-8 31 -19 60.5t-26.5 54t-36 39t-45.5 14.5q-70 -2 -130 -49.5t-109 -116t-87 -148.5t-63 -147l4 4q-6 -6 -6 -12zM664 1464q0 -23 8 -40 t24 -17q10 0 18.5 6.5t8.5 22.5v12q0 8 -4 16q4 25 23.5 36t41.5 11q25 0 47.5 -14t26.5 -41q16 -29 42 -40t54 -11q49 0 91 30.5t42 82.5q0 18 -6 36.5t-24 18.5q-10 0 -19.5 -7t-9.5 -22v-2q2 -6 4 -11t2 -9q0 -29 -24.5 -46.5t-53.5 -17.5q-18 0 -34.5 8.5t-22.5 30.5 q-16 35 -48 52.5t-67 17.5q-47 0 -83.5 -27t-36.5 -76z" />
<glyph unicode="&#xd2;" horiz-adv-x="1456" d="M12 688q2 -143 52.5 -269t136.5 -219.5t201.5 -147.5t248.5 -54h6q131 0 246 55.5t201 148.5t135 219t49 269v6q-2 106 -29.5 200.5t-78.5 180.5q80 29 154.5 78t138.5 127q6 6 6 14q0 6 -3 11.5t-6 9.5q-4 4 -9 5t-9 1q-6 0 -11 -1t-9 -11l4 2q-66 -72 -137.5 -119 t-147.5 -74q-78 111 -189.5 179.5t-246.5 80.5q-2 4 -4 4h-2h-2q-14 0 -26.5 1t-27.5 1h-6q-131 0 -246.5 -55t-201.5 -149.5t-136.5 -220t-50.5 -267.5v-6zM66 688v6q0 131 46 248t125.5 204t185 138t224.5 53h19q-14 -27 -19.5 -50t-5.5 -46q0 -27 8 -48.5t23 -43.5 q31 -43 83 -69.5t122 -37.5h-5q10 -4 19 -4h20t17.5 -1t17.5 -1h8q41 0 85 5.5t91 17.5q47 -78 76 -169t33 -194v-6q0 -133 -46 -249.5t-126 -203.5t-185.5 -138.5t-224.5 -51.5h-6q-121 0 -227.5 50t-186 137.5t-125.5 204t-46 249.5zM530 1528q1 -17 17 -25l180 -96 q6 -6 12 -6q12 0 21.5 9t9.5 22q0 14 -16 24l-181 96q-8 4 -12 4q-12 0 -21.5 -8t-9.5 -20zM694 1243q0 18 5.5 41t19.5 47q115 -16 212 -74.5t167 -150.5q-72 -18 -140 -19q-20 0 -39.5 2.5t-35.5 4.5q-121 18 -160 73q-29 37 -29 76z" />
<glyph unicode="&#xd3;" horiz-adv-x="1456" d="M12 688q2 -143 52.5 -269t136.5 -219.5t201.5 -147.5t248.5 -54h6q131 0 246 55.5t201 148.5t135 219t49 269v6q-2 106 -29.5 200.5t-78.5 180.5q80 29 154.5 78t138.5 127q6 6 6 14q0 6 -3 11.5t-6 9.5q-4 4 -9 5t-9 1q-6 0 -11 -1t-9 -11l4 2q-66 -72 -137.5 -119 t-147.5 -74q-78 111 -189.5 179.5t-246.5 80.5q-2 4 -4 4h-2h-2q-14 0 -26.5 1t-27.5 1h-6q-131 0 -246.5 -55t-201.5 -149.5t-136.5 -220t-50.5 -267.5v-6zM66 688v6q0 131 46 248t125.5 204t185 138t224.5 53h19q-14 -27 -19.5 -50t-5.5 -46q0 -27 8 -48.5t23 -43.5 q31 -43 83 -69.5t122 -37.5h-5q10 -4 19 -4h20t17.5 -1t17.5 -1h8q41 0 85 5.5t91 17.5q47 -78 76 -169t33 -194v-6q0 -133 -46 -249.5t-126 -203.5t-185.5 -138.5t-224.5 -51.5h-6q-121 0 -227.5 50t-186 137.5t-125.5 204t-46 249.5zM522 1436q0 -27 29 -27h16 q59 0 110.5 33t88.5 80q6 6 6 14q0 12 -9 20.5t-20 8.5q-14 -1 -22 -13q-29 -41 -67 -65.5t-85 -24.5h-18q-16 0 -22.5 -8t-6.5 -18zM694 1243q0 18 5.5 41t19.5 47q115 -16 212 -74.5t167 -150.5q-72 -18 -140 -19q-20 0 -39.5 2.5t-35.5 4.5q-121 18 -160 73 q-29 37 -29 76z" />
<glyph unicode="&#xd4;" horiz-adv-x="1456" d="M12 688q2 -143 52.5 -269t136.5 -219.5t201.5 -147.5t248.5 -54h6q131 0 246 55.5t201 148.5t135 219t49 269v6q-2 106 -29.5 200.5t-78.5 180.5q80 29 154.5 78t138.5 127q6 6 6 14q0 6 -3 11.5t-6 9.5q-4 4 -9 5t-9 1q-6 0 -11 -1t-9 -11l4 2q-66 -72 -137.5 -119 t-147.5 -74q-78 111 -189.5 179.5t-246.5 80.5q-2 4 -4 4h-2h-2q-14 0 -26.5 1t-27.5 1h-6q-131 0 -246.5 -55t-201.5 -149.5t-136.5 -220t-50.5 -267.5v-6zM66 688v6q0 131 46 248t125.5 204t185 138t224.5 53h19q-14 -27 -19.5 -50t-5.5 -46q0 -27 8 -48.5t23 -43.5 q31 -43 83 -69.5t122 -37.5h-5q10 -4 19 -4h20t17.5 -1t17.5 -1h8q41 0 85 5.5t91 17.5q47 -78 76 -169t33 -194v-6q0 -133 -46 -249.5t-126 -203.5t-185.5 -138.5t-224.5 -51.5h-6q-121 0 -227.5 50t-186 137.5t-125.5 204t-46 249.5zM477 1430q0 -27 25 -27q10 0 16 6 l135 84l125 -92q6 -6 17 -6q12 0 19 9t7 19q0 14 -10 23l-133 98q-6 6 -16 6q-4 0 -6.5 -1t-4.5 -1h-2q-12 0 -16 -4l-144 -90q-12 -12 -12 -24zM694 1243q0 18 5.5 41t19.5 47q115 -16 212 -74.5t167 -150.5q-72 -18 -140 -19q-20 0 -39.5 2.5t-35.5 4.5q-121 18 -160 73 q-29 37 -29 76z" />
<glyph unicode="&#xd5;" horiz-adv-x="1456" d="M12 688q2 -143 52.5 -269t136.5 -219.5t201.5 -147.5t248.5 -54h6q131 0 246 55.5t201 148.5t135 219t49 269v6q-2 106 -29.5 200.5t-78.5 180.5q80 29 154.5 78t138.5 127q6 6 6 14q0 6 -3 11.5t-6 9.5q-4 4 -9 5t-9 1q-6 0 -11 -1t-9 -11l4 2q-66 -72 -137.5 -119 t-147.5 -74q-78 111 -189.5 179.5t-246.5 80.5q-2 4 -4 4h-2h-2q-14 0 -26.5 1t-27.5 1h-6q-131 0 -246.5 -55t-201.5 -149.5t-136.5 -220t-50.5 -267.5v-6zM66 688v6q0 131 46 248t125.5 204t185 138t224.5 53h19q-14 -27 -19.5 -50t-5.5 -46q0 -27 8 -48.5t23 -43.5 q31 -43 83 -69.5t122 -37.5h-5q10 -4 19 -4h20t17.5 -1t17.5 -1h8q41 0 85 5.5t91 17.5q47 -78 76 -169t33 -194v-6q0 -133 -46 -249.5t-126 -203.5t-185.5 -138.5t-224.5 -51.5h-6q-121 0 -227.5 50t-186 137.5t-125.5 204t-46 249.5zM438 1444q0 -23 8.5 -40.5t24.5 -17.5 q10 0 18.5 6.5t8.5 22.5v12q0 8 -4 17q4 25 23.5 36t41.5 11q25 0 47.5 -14.5t26.5 -40.5q16 -29 41.5 -40.5t54.5 -11.5q49 0 91 31t42 82q0 18 -6 36.5t-25 18.5q-10 0 -19 -7t-9 -21v-2q2 -6 4 -11.5t2 -9.5q0 -29 -24.5 -46t-53.5 -17q-18 0 -34.5 8t-22.5 31 q-16 35 -48 52t-67 17q-47 0 -84 -26.5t-37 -75.5zM694 1243q0 18 5.5 41t19.5 47q115 -16 212 -74.5t167 -150.5q-72 -18 -140 -19q-20 0 -39.5 2.5t-35.5 4.5q-121 18 -160 73q-29 37 -29 76z" />
<glyph unicode="&#xd6;" horiz-adv-x="1456" d="M12 688q2 -143 52.5 -269t136.5 -219.5t201.5 -147.5t248.5 -54h6q131 0 246 55.5t201 148.5t135 219t49 269v6q-2 106 -29.5 200.5t-78.5 180.5q80 29 154.5 78t138.5 127q6 6 6 14q0 6 -3 11.5t-6 9.5q-4 4 -9 5t-9 1q-6 0 -11 -1t-9 -11l4 2q-66 -72 -137.5 -119 t-147.5 -74q-78 111 -189.5 179.5t-246.5 80.5q-2 4 -4 4h-2h-2q-14 0 -26.5 1t-27.5 1h-6q-131 0 -246.5 -55t-201.5 -149.5t-136.5 -220t-50.5 -267.5v-6zM66 688v6q0 131 46 248t125.5 204t185 138t224.5 53h19q-14 -27 -19.5 -50t-5.5 -46q0 -27 8 -48.5t23 -43.5 q31 -43 83 -69.5t122 -37.5h-5q10 -4 19 -4h20t17.5 -1t17.5 -1h8q41 0 85 5.5t91 17.5q47 -78 76 -169t33 -194v-6q0 -133 -46 -249.5t-126 -203.5t-185.5 -138.5t-224.5 -51.5h-6q-121 0 -227.5 50t-186 137.5t-125.5 204t-46 249.5zM496 1518q0 23 15 37t38 14t38 -14.5 t15 -36.5q0 -23 -15.5 -36.5t-37.5 -13.5q-23 0 -38 13.5t-15 36.5zM694 1243q0 18 5.5 41t19.5 47q115 -16 212 -74.5t167 -150.5q-72 -18 -140 -19q-20 0 -39.5 2.5t-35.5 4.5q-121 18 -160 73q-29 37 -29 76zM707 1513q0 23 15 37.5t38 14.5t38 -14.5t15 -37.5t-15.5 -36 t-37.5 -13q-23 0 -38 13t-15 36z" />
<glyph unicode="&#xd8;" horiz-adv-x="1456" d="M12 688q2 -201 95.5 -362.5t246.5 -249.5l-69 -166q-2 -4 -2 -12q0 -27 26 -27q14 0 25 18l69 162q117 -53 248 -53h6q131 0 246 55.5t201 148.5t135 219t49 269v6q-2 106 -29.5 200.5t-78.5 180.5q80 29 154.5 78t138.5 127q6 6 6 14q0 14 -9.5 20.5t-17.5 6.5 q-6 0 -11 -1t-9 -11l4 2q-66 -72 -137.5 -119t-147.5 -74q-43 59 -97.5 108.5t-115.5 84.5l66 155q2 4 2 13q0 27 -27 26q-17 0 -25 -18l-65 -154q-41 20 -87 29.5t-93 19.5h-2q-14 0 -26.5 1t-27.5 1h-6q-131 0 -246.5 -55t-201.5 -149.5t-136.5 -220t-50.5 -267.5v-6z M66 688v6q0 131 46 248t125.5 204t185 138t224.5 53h19q-14 -27 -19.5 -50t-5.5 -46q0 -57 38 -103t97 -69l-401 -946q-139 82 -224 231.5t-85 333.5zM422 98l405 955q27 -8 50 -11h-5q16 -4 37 -5t37 -1h8q41 0 85 5.5t91 17.5q47 -78 76 -169t33 -194v-6 q0 -133 -46 -249.5t-126 -203.5t-185.5 -138.5t-224.5 -51.5h-6q-61 0 -118.5 13.5t-110.5 37.5zM694 1243q0 18 5.5 41t19.5 47q80 -12 149 -43l-73 -172q-49 18 -72 51q-29 37 -29 76zM848 1100l70 164q106 -60 180 -158q-72 -18 -140 -19q-29 0 -61.5 3.5t-48.5 9.5z" />
<glyph unicode="&#xd9;" horiz-adv-x="1613" d="M10 924q0 -27 21 -31h8q4 0 11 4t9 12q12 53 45 125t79 137.5t100.5 111.5t111.5 46q10 0 13 2q14 0 31.5 -13t32.5 -31.5t25.5 -40t10.5 -40.5l-12 -1001v-6q0 -59 21.5 -98.5t56 -63t77.5 -33.5t88 -10h2q141 14 248 106.5t164 247.5l4 -213q0 -29 16.5 -52.5t41 -40.5 t54 -27.5t54.5 -12.5h14q51 2 95.5 29.5t82 66.5t67.5 85t52 85q2 4 2 13q0 10 -4 13t-10 7t-12 4q-14 0 -21 -16v4q-23 -39 -51.5 -80t-60 -76t-67.5 -58.5t-75 -25.5h-6q-20 0 -41.5 7.5t-40 18.5t-30 25.5t-11.5 30.5l-2 410q0 16 2 26q0 10 -2 15l-6 760q0 25 -27 24 q-23 0 -22 -27l4 -790q-33 -217 -129 -350t-244 -154l-41 -6l-39 4q-63 2 -109 41t-46 117l12 1001q0 25 -11 53.5t-30.5 53t-44.5 43t-49 24.5h-31l-31 -6q-66 -12 -123 -65.5t-104 -122t-78.5 -140t-44.5 -122.5zM625 1528q0 -17 16 -25l180 -96q6 -6 13 -6q12 0 21 9 t9 22q0 14 -16 24l-180 96q-8 4 -13 4q-12 0 -21 -8t-9 -20z" />
<glyph unicode="&#xda;" horiz-adv-x="1613" d="M10 924q0 -27 21 -31h8q4 0 11 4t9 12q12 53 45 125t79 137.5t100.5 111.5t111.5 46q10 0 13 2q14 0 31.5 -13t32.5 -31.5t25.5 -40t10.5 -40.5l-12 -1001v-6q0 -59 21.5 -98.5t56 -63t77.5 -33.5t88 -10h2q141 14 248 106.5t164 247.5l4 -213q0 -29 16.5 -52.5t41 -40.5 t54 -27.5t54.5 -12.5h14q51 2 95.5 29.5t82 66.5t67.5 85t52 85q2 4 2 13q0 10 -4 13t-10 7t-12 4q-14 0 -21 -16v4q-23 -39 -51.5 -80t-60 -76t-67.5 -58.5t-75 -25.5h-6q-20 0 -41.5 7.5t-40 18.5t-30 25.5t-11.5 30.5l-2 410q0 16 2 26q0 10 -2 15l-6 760q0 25 -27 24 q-23 0 -22 -27l4 -790q-33 -217 -129 -350t-244 -154l-41 -6l-39 4q-63 2 -109 41t-46 117l12 1001q0 25 -11 53.5t-30.5 53t-44.5 43t-49 24.5h-31l-31 -6q-66 -12 -123 -65.5t-104 -122t-78.5 -140t-44.5 -122.5zM614 1436q0 -27 29 -27h16q59 0 110.5 33t88.5 80 q6 6 6 14q0 12 -9 20.5t-19 8.5q-15 -1 -23 -13q-29 -41 -66.5 -65.5t-84.5 -24.5h-19q-16 0 -22.5 -8t-6.5 -18z" />
<glyph unicode="&#xdb;" horiz-adv-x="1613" d="M10 924q0 -27 21 -31h8q4 0 11 4t9 12q12 53 45 125t79 137.5t100.5 111.5t111.5 46q10 0 13 2q14 0 31.5 -13t32.5 -31.5t25.5 -40t10.5 -40.5l-12 -1001v-6q0 -59 21.5 -98.5t56 -63t77.5 -33.5t88 -10h2q141 14 248 106.5t164 247.5l4 -213q0 -29 16.5 -52.5t41 -40.5 t54 -27.5t54.5 -12.5h14q51 2 95.5 29.5t82 66.5t67.5 85t52 85q2 4 2 13q0 10 -4 13t-10 7t-12 4q-14 0 -21 -16v4q-23 -39 -51.5 -80t-60 -76t-67.5 -58.5t-75 -25.5h-6q-20 0 -41.5 7.5t-40 18.5t-30 25.5t-11.5 30.5l-2 410q0 16 2 26q0 10 -2 15l-6 760q0 25 -27 24 q-23 0 -22 -27l4 -790q-33 -217 -129 -350t-244 -154l-41 -6l-39 4q-63 2 -109 41t-46 117l12 1001q0 25 -11 53.5t-30.5 53t-44.5 43t-49 24.5h-31l-31 -6q-66 -12 -123 -65.5t-104 -122t-78.5 -140t-44.5 -122.5zM567 1430q0 -27 25 -27q10 0 16 6l135 84l125 -92 q6 -6 17 -6q12 0 19 9t7 19q0 14 -10 23l-133 98q-6 6 -16 6q-4 0 -6.5 -1t-4.5 -1h-2q-12 0 -16 -4l-143 -90q-12 -12 -13 -24z" />
<glyph unicode="&#xdc;" horiz-adv-x="1613" d="M10 924q0 -27 21 -31h8q4 0 11 4t9 12q12 53 45 125t79 137.5t100.5 111.5t111.5 46q10 0 13 2q14 0 31.5 -13t32.5 -31.5t25.5 -40t10.5 -40.5l-12 -1001v-6q0 -59 21.5 -98.5t56 -63t77.5 -33.5t88 -10h2q141 14 248 106.5t164 247.5l4 -213q0 -29 16.5 -52.5t41 -40.5 t54 -27.5t54.5 -12.5h14q51 2 95.5 29.5t82 66.5t67.5 85t52 85q2 4 2 13q0 10 -4 13t-10 7t-12 4q-14 0 -21 -16v4q-23 -39 -51.5 -80t-60 -76t-67.5 -58.5t-75 -25.5h-6q-20 0 -41.5 7.5t-40 18.5t-30 25.5t-11.5 30.5l-2 410q0 16 2 26q0 10 -2 15l-6 760q0 25 -27 24 q-23 0 -22 -27l4 -790q-33 -217 -129 -350t-244 -154l-41 -6l-39 4q-63 2 -109 41t-46 117l12 1001q0 25 -11 53.5t-30.5 53t-44.5 43t-49 24.5h-31l-31 -6q-66 -12 -123 -65.5t-104 -122t-78.5 -140t-44.5 -122.5zM586 1518q0 23 15 37t38 14t38 -14.5t15 -36.5 q0 -23 -15 -36.5t-38 -13.5t-38 13.5t-15 36.5zM797 1513q0 23 15 37.5t38 14.5t38 -14.5t15 -37.5t-15.5 -36t-37.5 -13q-23 0 -38 13t-15 36z" />
<glyph unicode="&#xdd;" horiz-adv-x="1515" d="M10 1079q0 -27 23 -26q10 0 18 7t8 17q2 31 15.5 74t39 81t61.5 65.5t83 27.5q23 0 43.5 -15.5t36.5 -40t25.5 -53t9.5 -55.5v-622q0 -47 14 -98.5t46 -94.5t81 -70.5t119 -27.5q61 2 119.5 36.5t110.5 91t97.5 128t79.5 145.5l-6 -737l-65 -43q-72 -45 -135.5 -90 t-110.5 -94.5t-76 -104.5t-29 -121v-6q0 -41 17.5 -87t48.5 -84t71 -62.5t83 -24.5q70 0 116.5 45t75.5 111.5t41 140.5t12 133v252l68 41q109 68 212 151t171 191h-2q6 6 6 14t-3 11.5t-7 7.5t-9.5 5t-7.5 1q-8 0 -14 -6l-12 -12q-61 -98 -161.5 -177t-211.5 -145l-25 -18 l9 1405q0 10 -8.5 18t-18.5 8t-16 -8t-6 -18l-7 -562q-33 -82 -76.5 -168t-97 -155.5t-113 -114.5t-120.5 -45h-6q-53 0 -92 21.5t-64 55.5t-37 77t-12 84v622q0 31 -12.5 68t-34 69.5t-51 54t-66.5 21.5q-61 0 -108.5 -33.5t-78 -81t-46 -97.5t-15.5 -83zM506 1436 q0 -27 29 -27h16q59 0 110.5 33t88.5 80q6 6 6 14q0 12 -9.5 20.5t-19.5 8.5q-14 -1 -22 -13q-29 -41 -67 -65.5t-85 -24.5h-18q-16 0 -22.5 -8t-6.5 -18zM668 -547q0 55 27.5 104.5t73.5 95.5t107.5 89t131.5 86l26 16v-219q-2 -59 -13 -125.5t-33.5 -123t-59.5 -94.5 t-90 -38q-31 0 -62 19.5t-55.5 50.5t-38.5 67.5t-14 71.5z" />
<glyph unicode="&#xde;" horiz-adv-x="845" d="M33 12q0 -14 7 -20t17 -6t17.5 6t7.5 20v451q72 -25 152.5 -41t160.5 -16q92 0 177 24.5t157 83.5q43 53 64.5 124t21.5 144q0 174 -104.5 279.5t-313.5 105.5q-86 0 -165.5 -24.5t-149.5 -71.5v307q0 12 -7 19.5t-18 7.5q-10 0 -17 -7t-7 -20v-1366zM82 514v498q2 0 6 4 q61 49 147.5 76.5t174.5 27.5q70 0 134 -19.5t113.5 -61.5t79 -106.5t29.5 -154.5q0 -55 -13.5 -107.5t-41 -95.5t-70.5 -70.5t-102 -31.5q-37 -10 -75 -13t-77 -3q-78 0 -154.5 15t-150.5 42z" />
<glyph unicode="&#xdf;" horiz-adv-x="790" d="M2 -127q0 -14 7 -20.5t18 -6.5q10 0 17 6.5t7 20.5v1153q8 47 11.5 101.5t14.5 103.5t38.5 89t83.5 56q6 0 11 1t11 1q43 0 79 -19.5t61.5 -50t40 -70.5t14.5 -81t-12.5 -85t-34 -86t-49 -79t-60.5 -61q-8 -6 -8 -19q0 -10 6 -18t16 -8q2 0 4.5 1t4.5 1q47 20 96 20 q61 0 112.5 -32.5t87 -85t56 -116t20.5 -126.5q0 -53 -13 -118.5t-42 -126t-75 -105.5t-109 -56q-16 0 -23 2q-10 0 -18 -4q-33 0 -66 11.5t-58.5 33t-41.5 51t-16 68.5t20 68.5t61 36.5q12 0 19.5 7t7.5 17t-7 17.5t-20 7.5q-68 -6 -98.5 -51.5t-30.5 -102.5 q0 -96 68 -154.5t174 -58.5h16t17 2h8q61 0 118.5 20.5t108 55.5t92 81t70.5 99q4 4 4 15q0 10 -7 18t-17 8q-12 0 -21 -12q-35 -61 -84 -112.5t-110 -84.5q33 37 56.5 83t38.5 95.5t22.5 97.5t7.5 91q0 72 -25 145.5t-68 132t-103 95t-132 36.5h-23q47 59 76 136t29 153 q0 80 -37 148.5t-125 103.5q-31 14 -70 14q-80 0 -125 -44t-66.5 -109.5t-26.5 -140t-9 -136.5v-1124z" />
<glyph unicode="&#xe0;" horiz-adv-x="991" d="M-31 217q0 -45 22.5 -86t57.5 -71.5t78 -49t86 -18.5q98 0 184 50t140 116q2 -29 15 -57.5t34.5 -53t49 -40t58.5 -15.5q41 0 84 30.5t84 67.5q41 41 79 88t65 88q6 6 6 15q0 14 -15 24l2 -4q-6 6 -14 6q-6 0 -13 -2t-11 -12v2q-27 -41 -63 -88t-71 -82 q-41 -37 -75.5 -60.5t-57.5 -23.5q-18 0 -37.5 12.5t-35 30.5t-24.5 40.5t-9 45.5l-4 74h2t2 2v8v2t-4 4l-2 336v6q-4 4 -4 6q0 4 -3 6q-4 2 -6 2t-6 5h-6h-6h-14q-72 0 -169.5 -23t-186.5 -71t-150.5 -124.5t-61.5 -183.5v-2zM18 219v4q0 90 55.5 154.5t134.5 107.5 t167 63.5t155 22.5l5 -313q-12 -35 -43 -73t-74 -70.5t-95.5 -53t-109.5 -20.5q-35 0 -69.5 15.5t-62.5 40t-45.5 56t-17.5 66.5zM346 885q0 -15 14 -23l164 -88q8 -4 13 -4q27 0 26 27q0 14 -14 22l-164 88q-8 4 -12 4q-27 0 -27 -26z" />
<glyph unicode="&#xe1;" horiz-adv-x="991" d="M-31 217q0 -45 22.5 -86t57.5 -71.5t78 -49t86 -18.5q98 0 184 50t140 116q2 -29 15 -57.5t34.5 -53t49 -40t58.5 -15.5q41 0 84 30.5t84 67.5q41 41 79 88t65 88q6 6 6 15q0 14 -15 24l2 -4q-6 6 -14 6q-6 0 -13 -2t-11 -12v2q-27 -41 -63 -88t-71 -82 q-41 -37 -75.5 -60.5t-57.5 -23.5q-18 0 -37.5 12.5t-35 30.5t-24.5 40.5t-9 45.5l-4 74h2t2 2v8v2t-4 4l-2 336v6q-4 4 -4 6q0 4 -3 6q-4 2 -6 2t-6 5h-6h-6h-14q-72 0 -169.5 -23t-186.5 -71t-150.5 -124.5t-61.5 -183.5v-2zM18 219v4q0 90 55.5 154.5t134.5 107.5 t167 63.5t155 22.5l5 -313q-12 -35 -43 -73t-74 -70.5t-95.5 -53t-109.5 -20.5q-35 0 -69.5 15.5t-62.5 40t-45.5 56t-17.5 66.5zM365 793q0 -10 6 -17.5t20 -7.5h15q53 0 100 29.5t80 72.5q6 6 6 15q0 25 -27 24q-12 0 -20 -10q-27 -39 -60.5 -60.5t-76.5 -21.5h-17 q-14 0 -20 -7t-6 -17z" />
<glyph unicode="&#xe2;" horiz-adv-x="991" d="M-31 217q0 -45 22.5 -86t57.5 -71.5t78 -49t86 -18.5q98 0 184 50t140 116q2 -29 15 -57.5t34.5 -53t49 -40t58.5 -15.5q41 0 84 30.5t84 67.5q41 41 79 88t65 88q6 6 6 15q0 14 -15 24l2 -4q-6 6 -14 6q-6 0 -13 -2t-11 -12v2q-27 -41 -63 -88t-71 -82 q-41 -37 -75.5 -60.5t-57.5 -23.5q-18 0 -37.5 12.5t-35 30.5t-24.5 40.5t-9 45.5l-4 74h2t2 2v8v2t-4 4l-2 336v6q-4 4 -4 6q0 4 -3 6q-4 2 -6 2t-6 5h-6h-6h-14q-72 0 -169.5 -23t-186.5 -71t-150.5 -124.5t-61.5 -183.5v-2zM18 219v4q0 90 55.5 154.5t134.5 107.5 t167 63.5t155 22.5l5 -313q-12 -35 -43 -73t-74 -70.5t-95.5 -53t-109.5 -20.5q-35 0 -69.5 15.5t-62.5 40t-45.5 56t-17.5 66.5zM319 797q0 -23 23 -23q10 0 14 4l123 78l115 -84q6 -6 14 -6q25 0 25 27q0 12 -10 20l-121 88q-6 6 -15 6q-4 0 -6 -1t-4 -1h-2q-10 0 -14 -4 l-129 -82q-12 -10 -13 -22z" />
<glyph unicode="&#xe3;" horiz-adv-x="991" d="M-31 217q0 -45 22.5 -86t57.5 -71.5t78 -49t86 -18.5q98 0 184 50t140 116q2 -29 15 -57.5t34.5 -53t49 -40t58.5 -15.5q41 0 84 30.5t84 67.5q41 41 79 88t65 88q6 6 6 15q0 14 -15 24l2 -4q-6 6 -14 6q-6 0 -13 -2t-11 -12v2q-27 -41 -63 -88t-71 -82 q-41 -37 -75.5 -60.5t-57.5 -23.5q-18 0 -37.5 12.5t-35 30.5t-24.5 40.5t-9 45.5l-4 74h2t2 2v8v2t-4 4l-2 336v6q-4 4 -4 6q0 4 -3 6q-4 2 -6 2t-6 5h-6h-6h-14q-72 0 -169.5 -23t-186.5 -71t-150.5 -124.5t-61.5 -183.5v-2zM18 219v4q0 90 55.5 154.5t134.5 107.5 t167 63.5t155 22.5l5 -313q-12 -35 -43 -73t-74 -70.5t-95.5 -53t-109.5 -20.5q-35 0 -69.5 15.5t-62.5 40t-45.5 56t-17.5 66.5zM281 823q0 -23 6 -38t22 -15q10 0 17.5 6.5t7.5 20.5q0 16 -4 26q4 23 21.5 33t37.5 10q23 0 43.5 -13t24.5 -38q16 -25 38.5 -36t49.5 -11 q45 0 83 27.5t38 74.5q0 16 -6.5 34t-22.5 18q-10 0 -17.5 -7.5t-7.5 -19.5v-2q4 -12 4 -19q0 -27 -22.5 -42t-46.5 -15q-16 0 -31.5 8.5t-21.5 26.5q-14 33 -43 48t-62 15q-41 0 -74.5 -23.5t-33.5 -68.5z" />
<glyph unicode="&#xe4;" horiz-adv-x="991" d="M-31 217q0 -45 22.5 -86t57.5 -71.5t78 -49t86 -18.5q98 0 184 50t140 116q2 -29 15 -57.5t34.5 -53t49 -40t58.5 -15.5q41 0 84 30.5t84 67.5q41 41 79 88t65 88q6 6 6 15q0 14 -15 24l2 -4q-6 6 -14 6q-6 0 -13 -2t-11 -12v2q-27 -41 -63 -88t-71 -82 q-41 -37 -75.5 -60.5t-57.5 -23.5q-18 0 -37.5 12.5t-35 30.5t-24.5 40.5t-9 45.5l-4 74h2t2 2v8v2t-4 4l-2 336v6q-4 4 -4 6q0 4 -3 6q-4 2 -6 2t-6 5h-6h-6h-14q-72 0 -169.5 -23t-186.5 -71t-150.5 -124.5t-61.5 -183.5v-2zM18 219v4q0 90 55.5 154.5t134.5 107.5 t167 63.5t155 22.5l5 -313q-12 -35 -43 -73t-74 -70.5t-95.5 -53t-109.5 -20.5q-35 0 -69.5 15.5t-62.5 40t-45.5 56t-17.5 66.5zM313 821q0 23 15.5 37t38.5 14t38 -14t15 -37t-15.5 -36t-37.5 -13q-23 0 -38.5 13t-15.5 36zM524 817q0 23 15.5 37t38.5 14t38 -14t15 -37 t-15.5 -36t-37.5 -13q-23 0 -38.5 13t-15.5 36z" />
<glyph unicode="&#xe5;" horiz-adv-x="991" d="M-31 217q0 -45 22.5 -86t57.5 -71.5t78 -49t86 -18.5q98 0 184 50t140 116q2 -29 15 -57.5t34.5 -53t49 -40t58.5 -15.5q41 0 84 30.5t84 67.5q41 41 79 88t65 88q6 6 6 15q0 14 -15 24l2 -4q-6 6 -14 6q-6 0 -13 -2t-11 -12v2q-27 -41 -63 -88t-71 -82 q-41 -37 -75.5 -60.5t-57.5 -23.5q-18 0 -37.5 12.5t-35 30.5t-24.5 40.5t-9 45.5l-4 74h2t2 2v8v2t-4 4l-2 336v6q-4 4 -4 6q0 4 -3 6q-4 2 -6 2t-6 5h-6h-6h-14q-72 0 -169.5 -23t-186.5 -71t-150.5 -124.5t-61.5 -183.5v-2zM18 219v4q0 90 55.5 154.5t134.5 107.5 t167 63.5t155 22.5l5 -313q-12 -35 -43 -73t-74 -70.5t-95.5 -53t-109.5 -20.5q-35 0 -69.5 15.5t-62.5 40t-45.5 56t-17.5 66.5zM420 840q0 -25 16 -47q14 -14 27.5 -20.5t52.5 -6.5q35 0 60.5 23.5t25.5 56.5q0 35 -26.5 57.5t-55.5 22.5q-37 0 -68.5 -24.5t-31.5 -61.5z M471 838q0 18 13.5 27t29.5 9q21 0 31 -10q2 -4 4 -10t2 -10q0 -14 -13.5 -20.5t-25.5 -6.5q-16 0 -27.5 2t-13.5 19z" />
<glyph unicode="&#xe6;" horiz-adv-x="1325" d="M-31 217q0 -45 22.5 -86t57.5 -71.5t78 -49t86 -18.5q98 0 184 50t140 116q2 -29 15 -57.5t34.5 -53t49.5 -40t58 -15.5q27 0 54.5 13t56.5 36q61 -49 170 -49q78 0 137 26.5t103.5 68.5t76 91t56.5 96q2 4 2 13q0 14 -15 22h-8q-14 0 -24 -10q-25 -45 -53.5 -91 t-67.5 -83t-90.5 -60.5t-116.5 -23.5q-82 0 -131 33q6 4 18 16q72 78 129.5 142.5t106.5 148.5q8 16 10 40.5t2 47.5q0 57 -39 98t-90 45h-55q-49 -10 -89 -45t-70 -83t-45 -104t-15 -106q0 -6 1 -14t1 -14q4 -43 18 -88t43 -82q-47 -35 -76 -35q-18 0 -37.5 12.5t-35 30.5 t-24.5 40.5t-9 45.5l-4 74v16l-2 336v6q-4 4 -4 6q0 4 -3 6q-4 2 -6 2t-6 5h-26q-72 0 -169.5 -23t-186.5 -71t-150.5 -124.5t-61.5 -183.5v-2zM18 219v4q0 90 55.5 154.5t134.5 107.5t167 63.5t155 22.5l5 -313q-12 -35 -43 -73t-74 -70.5t-95.5 -53t-109.5 -20.5 q-35 0 -69.5 15.5t-62.5 40t-45.5 56t-17.5 66.5zM758 219l4 109q6 43 23.5 85t43 74.5t59.5 53t70 20.5h11q29 0 56.5 -21.5t33.5 -56.5q4 -4 4 -16q-2 -47 -26.5 -91t-59.5 -87t-76 -84t-74 -80q-8 -7 -20 -19q-18 20 -28.5 44t-16.5 53q-4 8 -4 16z" />
<glyph unicode="&#xe7;" horiz-adv-x="724" d="M-31 289q0 -61 35 -115.5t88 -94.5t117 -63.5t123 -23.5q68 0 129 21.5t113.5 59.5t95.5 88t71 107q4 4 4 13q0 14 -14 24h-10q-6 0 -14.5 -3t-12.5 -13q-27 -53 -64.5 -98.5t-84.5 -78t-101.5 -52t-111.5 -19.5q-53 0 -108.5 20.5t-100.5 56.5t-75 81t-30 94v6 q4 63 34 113.5t73 84t95 52t106 18.5q63 0 114 -26h9q14 0 24 14q2 4 2 12q0 10 -4 13.5t-10 7.5q-29 16 -62.5 22t-72.5 6q-61 0 -123 -20.5t-112 -60t-84 -99t-38 -135.5v-12zM238 -176q0 -16 10 -26.5t23.5 -18.5t28.5 -11.5t28 -3.5q41 0 75.5 24t34.5 62q0 14 -7 31 t-19.5 31t-26.5 24.5t-27 10.5v49q0 10 -7 17t-17 7q-19 0 -25 -18l-8 -84q0 -25 23 -24h4q4 2 12 2q18 0 31.5 -15.5t13.5 -32.5q0 -23 -20.5 -27.5t-38.5 -4.5q-10 0 -19.5 2t-19.5 12l4 -4l-8 12q-10 12 -21 12q-10 0 -17 -8t-7 -18z" />
<glyph unicode="&#xe8;" horiz-adv-x="591" d="M-31 274q0 -6 1 -14t1 -14q4 -43 18.5 -88t44 -82t79 -60.5t125.5 -23.5q78 0 137 26.5t103 68.5t76 91t56 96q2 4 2 13q0 14 -14 22h-8q-14 0 -25 -10q-25 -45 -53.5 -91t-67 -83t-90 -60.5t-116.5 -23.5q-61 0 -102.5 17.5t-66 47t-35.5 66.5t-14 76v12h27q94 0 189 33 q57 25 97 64.5t40 111.5q0 57 -39 98t-90 45h-56q-49 -10 -89 -45t-69.5 -83t-45 -104t-15.5 -106zM20 309l5 19q6 43 23.5 85t43 74.5t59 53t70.5 20.5h10q35 0 64 -26.5t29 -65.5q0 -49 -30 -79t-77 -48q-78 -33 -160 -33h-37zM88 881q0 -15 14 -23l164 -88q8 -4 13 -4 q27 0 26 27q0 14 -14 22l-164 88q-8 4 -12 4q-27 0 -27 -26z" />
<glyph unicode="&#xe9;" horiz-adv-x="591" d="M-31 274q0 -6 1 -14t1 -14q4 -43 18.5 -88t44 -82t79 -60.5t125.5 -23.5q78 0 137 26.5t103 68.5t76 91t56 96q2 4 2 13q0 14 -14 22h-8q-14 0 -25 -10q-25 -45 -53.5 -91t-67 -83t-90 -60.5t-116.5 -23.5q-61 0 -102.5 17.5t-66 47t-35.5 66.5t-14 76v12h27q94 0 189 33 q57 25 97 64.5t40 111.5q0 57 -39 98t-90 45h-56q-49 -10 -89 -45t-69.5 -83t-45 -104t-15.5 -106zM20 309l5 19q6 43 23.5 85t43 74.5t59 53t70.5 20.5h10q35 0 64 -26.5t29 -65.5q0 -49 -30 -79t-77 -48q-78 -33 -160 -33h-37zM109 793q0 -10 6 -17.5t20 -7.5h15 q53 0 100 29.5t80 72.5q6 6 6 15q0 25 -27 24q-12 0 -20 -10q-27 -39 -60.5 -60.5t-76.5 -21.5h-17q-14 0 -20 -7t-6 -17z" />
<glyph unicode="&#xea;" horiz-adv-x="591" d="M-31 274q0 -6 1 -14t1 -14q4 -43 18.5 -88t44 -82t79 -60.5t125.5 -23.5q78 0 137 26.5t103 68.5t76 91t56 96q2 4 2 13q0 14 -14 22h-8q-14 0 -25 -10q-25 -45 -53.5 -91t-67 -83t-90 -60.5t-116.5 -23.5q-61 0 -102.5 17.5t-66 47t-35.5 66.5t-14 76v12h27q94 0 189 33 q57 25 97 64.5t40 111.5q0 57 -39 98t-90 45h-56q-49 -10 -89 -45t-69.5 -83t-45 -104t-15.5 -106zM20 309l5 19q6 43 23.5 85t43 74.5t59 53t70.5 20.5h10q35 0 64 -26.5t29 -65.5q0 -49 -30 -79t-77 -48q-78 -33 -160 -33h-37zM35 799q0 -23 22 -23q11 0 15 4l123 78 l114 -84q6 -6 15 -6q25 0 24 27q0 12 -10 20l-121 88q-6 6 -14 6q-4 0 -6 -1t-4 -1h-3q-10 0 -14 -4l-129 -82q-12 -10 -12 -22z" />
<glyph unicode="&#xeb;" horiz-adv-x="591" d="M-31 274q0 -6 1 -14t1 -14q4 -43 18.5 -88t44 -82t79 -60.5t125.5 -23.5q78 0 137 26.5t103 68.5t76 91t56 96q2 4 2 13q0 14 -14 22h-8q-14 0 -25 -10q-25 -45 -53.5 -91t-67 -83t-90 -60.5t-116.5 -23.5q-61 0 -102.5 17.5t-66 47t-35.5 66.5t-14 76v12h27q94 0 189 33 q57 25 97 64.5t40 111.5q0 57 -39 98t-90 45h-56q-49 -10 -89 -45t-69.5 -83t-45 -104t-15.5 -106zM20 309l5 19q6 43 23.5 85t43 74.5t59 53t70.5 20.5h10q35 0 64 -26.5t29 -65.5q0 -49 -30 -79t-77 -48q-78 -33 -160 -33h-37zM23 823q0 23 15 37t38 14t38 -14t15 -37 t-15.5 -36t-37.5 -13q-23 0 -38 13t-15 36zM233 819q0 23 15.5 37t38.5 14t38 -14t15 -37t-15.5 -36t-37.5 -13q-23 0 -38.5 13t-15.5 36z" />
<glyph unicode="&#xec;" horiz-adv-x="425" d="M-82 881q0 -15 14 -23l164 -88q8 -4 13 -4q27 0 26 27q0 14 -14 22l-164 88q-8 4 -12 4q-27 0 -27 -26zM-31 158q0 -31 14.5 -61.5t36 -53.5t49 -37t54.5 -14q55 0 96 18.5t76 49t63.5 71.5t59.5 88l22 47q6 6 6 15q0 6 -3 10t-5 8q-6 6 -14 6q-16 0 -21 -10 q-10 -10 -15 -19.5t-9 -15.5l4 4q-35 -53 -64.5 -94t-59.5 -69.5t-62.5 -44t-73.5 -15.5q-16 0 -34.5 10t-34 26.5t-25 37t-9.5 43.5v424q0 27 -26 26q-25 0 -25 -26v-424z" />
<glyph unicode="&#xed;" horiz-adv-x="425" d="M-88 791q0 -10 6 -17.5t21 -7.5h14q53 0 100 29.5t80 72.5q6 6 6 15q0 25 -26 24q-13 0 -21 -10q-27 -39 -60.5 -60.5t-76.5 -21.5h-16q-14 0 -20.5 -7t-6.5 -17zM-31 158q0 -31 14.5 -61.5t36 -53.5t49 -37t54.5 -14q55 0 96 18.5t76 49t63.5 71.5t59.5 88l22 47 q6 6 6 15q0 6 -3 10t-5 8q-6 6 -14 6q-16 0 -21 -10q-10 -10 -15 -19.5t-9 -15.5l4 4q-35 -53 -64.5 -94t-59.5 -69.5t-62.5 -44t-73.5 -15.5q-16 0 -34.5 10t-34 26.5t-25 37t-9.5 43.5v424q0 27 -26 26q-25 0 -25 -26v-424z" />
<glyph unicode="&#xee;" horiz-adv-x="425" d="M-156 797q0 -23 23 -23q10 0 14 4l123 78l115 -84q6 -6 14 -6q25 0 25 27q0 12 -11 20l-120 88q-6 6 -15 6q-4 0 -6 -1t-4 -1h-2q-10 0 -14 -4l-129 -82q-12 -10 -13 -22zM-31 158q0 -31 14.5 -61.5t36 -53.5t49 -37t54.5 -14q55 0 96 18.5t76 49t63.5 71.5t59.5 88 l22 47q6 6 6 15q0 6 -3 10t-5 8q-6 6 -14 6q-16 0 -21 -10q-10 -10 -15 -19.5t-9 -15.5l4 4q-35 -53 -64.5 -94t-59.5 -69.5t-62.5 -44t-73.5 -15.5q-16 0 -34.5 10t-34 26.5t-25 37t-9.5 43.5v424q0 27 -26 26q-25 0 -25 -26v-424z" />
<glyph unicode="&#xef;" horiz-adv-x="425" d="M-160 821q0 23 15.5 37t38.5 14t38 -14t15 -37t-15.5 -36t-37.5 -13q-23 0 -38.5 13t-15.5 36zM-31 158q0 -31 14.5 -61.5t36 -53.5t49 -37t54.5 -14q55 0 96 18.5t76 49t63.5 71.5t59.5 88l22 47q6 6 6 15q0 6 -3 10t-5 8q-6 6 -14 6q-16 0 -21 -10q-10 -10 -15 -19.5 t-9 -15.5l4 4q-35 -53 -64.5 -94t-59.5 -69.5t-62.5 -44t-73.5 -15.5q-16 0 -34.5 10t-34 26.5t-25 37t-9.5 43.5v424q0 27 -26 26q-25 0 -25 -26v-424zM51 817q0 23 15.5 37t37.5 14q23 0 38.5 -14t15.5 -37t-15.5 -36t-38.5 -13t-38 13t-15 36z" />
<glyph unicode="&#xf0;" horiz-adv-x="727" d="M18 272q0 -49 16.5 -99t49.5 -90t79 -65.5t107 -25.5h2q49 4 95.5 26.5t87.5 56.5t76.5 77t66.5 88l55 102q0 4 -1 5t-1 5v326q2 4 2 16q0 4 -2 8v123q-14 68 -27.5 140.5t-41.5 138.5q47 23 97 43t99 41q12 4 15.5 13t0.5 18.5t-11.5 13.5t-20.5 0q-53 -20 -103.5 -41 t-99.5 -43q-37 66 -101.5 107.5t-174.5 41.5q-16 0 -43 -3t-52.5 -9t-44 -15t-18.5 -24q0 -10 7 -17t18 -7q6 0 10 2q61 27 121 26q72 0 125 -36.5t94 -96.5q-88 -47 -174 -110q-10 -8 -11 -19q0 -10 5.5 -17t14.5 -10t19 5q41 31 83 57.5t87 50.5q39 -72 57.5 -155.5 t18.5 -157.5l-2 -39q-68 -2 -164 -20.5t-186 -62.5t-155.5 -115.5t-69.5 -178.5l-5 -49v-25zM70 276q0 23 4 33v8q0 92 56 157t137 106t171 60t160 24v-322q-29 -49 -63.5 -97t-72.5 -88t-79 -68t-84 -36h-55q-43 2 -76 23.5t-54.5 53.5t-32.5 71t-11 75z" />
<glyph unicode="&#xf1;" horiz-adv-x="1114" d="M-31 279q0 -8 1 -12.5t12 -8.5q6 -4 12 -4q10 0 20 10q33 47 51.5 72.5t26.5 38t10 15.5t0 3l1 2t8 13l26 43h-4q35 47 60 75q25 25 36 25h17q2 0 4 -4v-219v-2v-308q0 -27 26 -26q25 0 25 26v295q10 12 22.5 30.5t26.5 37.5q23 31 47.5 63.5t52 59t57.5 44t64 17.5 q20 0 39 -12t32 -31.5t20.5 -44t7.5 -47.5v-301q0 -35 13 -60.5t34.5 -42t47 -25.5t50.5 -9q55 0 103.5 25.5t88.5 66.5t71.5 89t56.5 95v11q0 8 -15 26h-10q-6 0 -13 -3t-10 -13q-25 -45 -54 -89t-63 -80t-73 -57.5t-82 -21.5q-35 0 -65.5 23.5t-30.5 64.5v301 q0 27 -10.5 59.5t-28.5 61.5t-46 47t-63 18q-41 0 -76.5 -16t-66.5 -44t-58.5 -62.5t-52.5 -71.5l-16 -27v146q0 8 -1 18t-11 21q-18 20 -60 20q-37 0 -70.5 -38t-62.5 -83l-37 -51q-29 -45 -51 -82t-33 -51q-4 -4 -5 -9t-1 -7zM348 825q0 -23 6 -38t23 -15q10 0 17 6.5 t7 20.5q0 16 -4 26q4 23 21.5 33t38.5 10q23 0 43 -13t24 -38q16 -25 39 -36t49 -11q45 0 83 27.5t38 74.5q0 16 -6 34t-22 18q-10 0 -17.5 -7.5t-7.5 -19.5v-2q4 -12 4 -18q0 -27 -22.5 -42.5t-47.5 -15.5q-16 0 -31.5 8.5t-21.5 26.5q-14 33 -43 48.5t-61 15.5 q-41 0 -75 -24t-34 -69z" />
<glyph unicode="&#xf2;" horiz-adv-x="917" d="M-31 295q0 -66 25.5 -121t70 -97t102.5 -65.5t126 -23.5q100 0 178 49t119 129q49 -14 110 -14q63 0 123 26.5t109 89.5q4 4 5 10.5t1 8.5q0 6 -1 11t-11 9l2 -2q-6 4 -15 4q-12 0 -20 -8q-37 -53 -89 -75.5t-108 -22.5q-23 0 -44 2t-46 8q12 39 12 82q0 66 -25.5 122 t-69.5 98t-103.5 66.5t-126.5 24.5q-68 0 -126 -24.5t-102.5 -66.5t-70 -98.5t-25.5 -121.5zM18 295q0 53 21.5 100t58.5 82t87.5 55.5t107.5 20.5q20 0 38.5 -2t37.5 -10q-29 -23 -39.5 -54.5t-10.5 -64.5t17.5 -66.5t48.5 -64.5t71 -58.5t83 -48.5q-33 -63 -98.5 -104 t-147.5 -41q-57 0 -107.5 20.5t-87.5 55.5t-58.5 81t-21.5 99zM180 885q1 -15 15 -23l163 -88q8 -4 13 -4q27 0 26 27q0 14 -14 22l-164 88q-8 4 -12 4q-27 0 -27 -26zM373 422q0 29 11 55.5t42 42.5q63 -33 103 -93t40 -132q0 -29 -10 -64q-84 35 -135 90.5t-51 100.5z" />
<glyph unicode="&#xf3;" horiz-adv-x="917" d="M-31 295q0 -66 25.5 -121t70 -97t102.5 -65.5t126 -23.5q100 0 178 49t119 129q49 -14 110 -14q63 0 123 26.5t109 89.5q4 4 5 10.5t1 8.5q0 6 -1 11t-11 9l2 -2q-6 4 -15 4q-12 0 -20 -8q-37 -53 -89 -75.5t-108 -22.5q-23 0 -44 2t-46 8q12 39 12 82q0 66 -25.5 122 t-69.5 98t-103.5 66.5t-126.5 24.5q-68 0 -126 -24.5t-102.5 -66.5t-70 -98.5t-25.5 -121.5zM18 295q0 53 21.5 100t58.5 82t87.5 55.5t107.5 20.5q20 0 38.5 -2t37.5 -10q-29 -23 -39.5 -54.5t-10.5 -64.5t17.5 -66.5t48.5 -64.5t71 -58.5t83 -48.5q-33 -63 -98.5 -104 t-147.5 -41q-57 0 -107.5 20.5t-87.5 55.5t-58.5 81t-21.5 99zM182 791q0 -10 6.5 -17.5t20.5 -7.5h14q53 0 100.5 29.5t79.5 72.5q6 6 7 15q0 25 -27 24q-13 0 -21 -10q-27 -39 -60.5 -60.5t-76.5 -21.5h-16q-14 0 -20.5 -7t-6.5 -17zM373 422q0 29 11 55.5t42 42.5 q63 -33 103 -93t40 -132q0 -29 -10 -64q-84 35 -135 90.5t-51 100.5z" />
<glyph unicode="&#xf4;" horiz-adv-x="917" d="M-31 295q0 -66 25.5 -121t70 -97t102.5 -65.5t126 -23.5q100 0 178 49t119 129q49 -14 110 -14q63 0 123 26.5t109 89.5q4 4 5 10.5t1 8.5q0 6 -1 11t-11 9l2 -2q-6 4 -15 4q-12 0 -20 -8q-37 -53 -89 -75.5t-108 -22.5q-23 0 -44 2t-46 8q12 39 12 82q0 66 -25.5 122 t-69.5 98t-103.5 66.5t-126.5 24.5q-68 0 -126 -24.5t-102.5 -66.5t-70 -98.5t-25.5 -121.5zM18 295q0 53 21.5 100t58.5 82t87.5 55.5t107.5 20.5q20 0 38.5 -2t37.5 -10q-29 -23 -39.5 -54.5t-10.5 -64.5t17.5 -66.5t48.5 -64.5t71 -58.5t83 -48.5q-33 -63 -98.5 -104 t-147.5 -41q-57 0 -107.5 20.5t-87.5 55.5t-58.5 81t-21.5 99zM137 799q0 -23 23 -23q10 0 14 4l123 78l115 -84q6 -6 14 -6q25 0 25 27q0 12 -11 20l-121 88q-6 6 -14 6q-4 0 -6 -1t-4 -1h-2q-10 0 -14 -4l-129 -82q-12 -10 -13 -22zM373 422q0 29 11 55.5t42 42.5 q63 -33 103 -93t40 -132q0 -29 -10 -64q-84 35 -135 90.5t-51 100.5z" />
<glyph unicode="&#xf5;" horiz-adv-x="917" d="M-31 295q0 -66 25.5 -121t70 -97t102.5 -65.5t126 -23.5q100 0 178 49t119 129q49 -14 110 -14q63 0 123 26.5t109 89.5q4 4 5 10.5t1 8.5q0 6 -1 11t-11 9l2 -2q-6 4 -15 4q-12 0 -20 -8q-37 -53 -89 -75.5t-108 -22.5q-23 0 -44 2t-46 8q12 39 12 82q0 66 -25.5 122 t-69.5 98t-103.5 66.5t-126.5 24.5q-68 0 -126 -24.5t-102.5 -66.5t-70 -98.5t-25.5 -121.5zM18 295q0 53 21.5 100t58.5 82t87.5 55.5t107.5 20.5q20 0 38.5 -2t37.5 -10q-29 -23 -39.5 -54.5t-10.5 -64.5t17.5 -66.5t48.5 -64.5t71 -58.5t83 -48.5q-33 -63 -98.5 -104 t-147.5 -41q-57 0 -107.5 20.5t-87.5 55.5t-58.5 81t-21.5 99zM104 821q0 -23 6.5 -38t22.5 -15q10 0 17.5 6.5t7.5 20.5q0 16 -4 26q4 23 21.5 33t37.5 10q23 0 43 -13t25 -38q16 -25 38.5 -36t49.5 -11q45 0 82.5 27.5t37.5 74.5q0 16 -6 34t-22 18q-10 0 -17.5 -7.5 t-7.5 -19.5v-2q4 -12 4 -19q0 -27 -22.5 -42t-46.5 -15q-16 0 -31.5 8t-22.5 27q-14 33 -42.5 48t-61.5 15q-41 0 -75 -23.5t-34 -68.5zM373 422q0 29 11 55.5t42 42.5q63 -33 103 -93t40 -132q0 -29 -10 -64q-84 35 -135 90.5t-51 100.5z" />
<glyph unicode="&#xf6;" horiz-adv-x="917" d="M-31 295q0 -66 25.5 -121t70 -97t102.5 -65.5t126 -23.5q100 0 178 49t119 129q49 -14 110 -14q63 0 123 26.5t109 89.5q4 4 5 10.5t1 8.5q0 6 -1 11t-11 9l2 -2q-6 4 -15 4q-12 0 -20 -8q-37 -53 -89 -75.5t-108 -22.5q-23 0 -44 2t-46 8q12 39 12 82q0 66 -25.5 122 t-69.5 98t-103.5 66.5t-126.5 24.5q-68 0 -126 -24.5t-102.5 -66.5t-70 -98.5t-25.5 -121.5zM18 295q0 53 21.5 100t58.5 82t87.5 55.5t107.5 20.5q20 0 38.5 -2t37.5 -10q-29 -23 -39.5 -54.5t-10.5 -64.5t17.5 -66.5t48.5 -64.5t71 -58.5t83 -48.5q-33 -63 -98.5 -104 t-147.5 -41q-57 0 -107.5 20.5t-87.5 55.5t-58.5 81t-21.5 99zM135 819q0 23 15.5 37t37.5 14q23 0 38.5 -14t15.5 -37t-15.5 -36t-38.5 -13t-38 13t-15 36zM346 815q0 23 15.5 37t37.5 14q23 0 38.5 -14t15.5 -37t-15.5 -36t-38.5 -13t-38 13t-15 36zM373 422q0 29 11 55.5 t42 42.5q63 -33 103 -93t40 -132q0 -29 -10 -64q-84 35 -135 90.5t-51 100.5z" />
<glyph unicode="&#xf8;" horiz-adv-x="917" d="M-31 295q0 -96 52.5 -170t136.5 -111l-52 -143q-4 -12 0.5 -21.5t13.5 -12.5t18 1t14 17l51 145q23 -4 45 -8t45 -4q100 0 178 49t119 129q49 -14 110 -14q63 0 123 26.5t109 89.5q4 4 5 10.5t1 8.5q0 6 -1 11t-11 9l2 -2q-6 4 -15 4q-12 0 -20 -8q-37 -53 -89 -75.5 t-108 -22.5q-23 0 -44 2t-46 8q12 39 12 82q0 98 -56 176t-148 113l57 155q4 12 0 20.5t-13 11.5t-18.5 0t-13.5 -15l-57 -158q-18 4 -37 6t-39 2q-68 0 -126 -24.5t-102.5 -66.5t-70 -98.5t-25.5 -121.5zM18 295q0 53 21.5 100t58.5 82t87.5 55.5t107.5 20.5q29 0 57 -6 l-174 -484q-72 31 -115 92.5t-43 139.5zM221 47l113 313q25 -51 81 -98t124 -78q-33 -63 -98.5 -104t-147.5 -41q-41 0 -72 8zM373 422q0 29 11 55.5t42 42.5q63 -33 103 -93t40 -132q0 -29 -10 -64q-84 35 -135 90.5t-51 100.5z" />
<glyph unicode="&#xf9;" horiz-adv-x="942" d="M-31 182q0 -43 16.5 -77.5t43 -59.5t57.5 -38t61 -13q63 0 131 44t128 103q23 23 45 50.5t38 52.5v-107q0 -29 16.5 -55.5t42 -46t54 -30.5t53.5 -11q59 0 102.5 26.5t78.5 67.5q33 41 55 74t43 63q6 10 13 20.5t14 20.5h-3q4 6 5 15q0 16 -15 24q-6 2 -10 2q-8 0 -13 -3 t-7 -5q-4 -8 -9.5 -12t-9.5 -13q-29 -47 -55.5 -88t-44.5 -63q-31 -35 -66 -57.5t-78 -22.5q-18 0 -38.5 8t-38 21.5t-28.5 30t-11 34.5v211v8v246q0 27 -23 27q-27 0 -27 -27v-242v-4v-6q-4 -18 -32 -63h4q-18 -27 -41 -54.5t-51 -56.5q-53 -53 -113.5 -93t-108.5 -40 q-20 0 -42.5 10t-42 28.5t-32 44.5t-12.5 56v424q0 8 -8 17.5t-18 9.5t-16.5 -9.5t-6.5 -17.5v-424zM145 885q1 -15 15 -23l164 -88q8 -4 12 -4q27 0 26 27q0 14 -14 22l-164 88q-8 4 -12 4q-27 0 -27 -26z" />
<glyph unicode="&#xfa;" horiz-adv-x="942" d="M-31 182q0 -43 16.5 -77.5t43 -59.5t57.5 -38t61 -13q63 0 131 44t128 103q23 23 45 50.5t38 52.5v-107q0 -29 16.5 -55.5t42 -46t54 -30.5t53.5 -11q59 0 102.5 26.5t78.5 67.5q33 41 55 74t43 63q6 10 13 20.5t14 20.5h-3q4 6 5 15q0 16 -15 24q-6 2 -10 2q-8 0 -13 -3 t-7 -5q-4 -8 -9.5 -12t-9.5 -13q-29 -47 -55.5 -88t-44.5 -63q-31 -35 -66 -57.5t-78 -22.5q-18 0 -38.5 8t-38 21.5t-28.5 30t-11 34.5v211v8v246q0 27 -23 27q-27 0 -27 -27v-242v-4v-6q-4 -18 -32 -63h4q-18 -27 -41 -54.5t-51 -56.5q-53 -53 -113.5 -93t-108.5 -40 q-20 0 -42.5 10t-42 28.5t-32 44.5t-12.5 56v424q0 8 -8 17.5t-18 9.5t-16.5 -9.5t-6.5 -17.5v-424zM143 791q0 -10 6.5 -17.5t20.5 -7.5h14q53 0 100.5 29.5t80.5 72.5q6 6 6 15q0 25 -27 24q-12 0 -20 -10q-27 -39 -61 -60.5t-77 -21.5h-16q-14 0 -20.5 -7t-6.5 -17z" />
<glyph unicode="&#xfb;" horiz-adv-x="942" d="M-31 182q0 -43 16.5 -77.5t43 -59.5t57.5 -38t61 -13q63 0 131 44t128 103q23 23 45 50.5t38 52.5v-107q0 -29 16.5 -55.5t42 -46t54 -30.5t53.5 -11q59 0 102.5 26.5t78.5 67.5q33 41 55 74t43 63q6 10 13 20.5t14 20.5h-3q4 6 5 15q0 16 -15 24q-6 2 -10 2q-8 0 -13 -3 t-7 -5q-4 -8 -9.5 -12t-9.5 -13q-29 -47 -55.5 -88t-44.5 -63q-31 -35 -66 -57.5t-78 -22.5q-18 0 -38.5 8t-38 21.5t-28.5 30t-11 34.5v211v8v246q0 27 -23 27q-27 0 -27 -27v-242v-4v-6q-4 -18 -32 -63h4q-18 -27 -41 -54.5t-51 -56.5q-53 -53 -113.5 -93t-108.5 -40 q-20 0 -42.5 10t-42 28.5t-32 44.5t-12.5 56v424q0 8 -8 17.5t-18 9.5t-16.5 -9.5t-6.5 -17.5v-424zM106 799q0 -23 23 -23q10 0 14 4l123 78l115 -84q6 -6 14 -6q25 0 25 27q0 12 -10 20l-121 88q-6 6 -15 6q-4 0 -6 -1t-4 -1h-2q-10 0 -14 -4l-129 -82q-12 -10 -13 -22z " />
<glyph unicode="&#xfc;" horiz-adv-x="942" d="M-31 182q0 -43 16.5 -77.5t43 -59.5t57.5 -38t61 -13q63 0 131 44t128 103q23 23 45 50.5t38 52.5v-107q0 -29 16.5 -55.5t42 -46t54 -30.5t53.5 -11q59 0 102.5 26.5t78.5 67.5q33 41 55 74t43 63q6 10 13 20.5t14 20.5h-3q4 6 5 15q0 16 -15 24q-6 2 -10 2q-8 0 -13 -3 t-7 -5q-4 -8 -9.5 -12t-9.5 -13q-29 -47 -55.5 -88t-44.5 -63q-31 -35 -66 -57.5t-78 -22.5q-18 0 -38.5 8t-38 21.5t-28.5 30t-11 34.5v211v8v246q0 27 -23 27q-27 0 -27 -27v-242v-4v-6q-4 -18 -32 -63h4q-18 -27 -41 -54.5t-51 -56.5q-53 -53 -113.5 -93t-108.5 -40 q-20 0 -42.5 10t-42 28.5t-32 44.5t-12.5 56v424q0 8 -8 17.5t-18 9.5t-16.5 -9.5t-6.5 -17.5v-424zM96 821q0 23 15.5 37t38.5 14t38 -14t15 -37t-15.5 -36t-37.5 -13q-23 0 -38.5 13t-15.5 36zM307 817q0 23 15.5 37t37.5 14q23 0 38.5 -14t15.5 -37t-15.5 -36t-38.5 -13 t-38 13t-15 36z" />
<glyph unicode="&#xfd;" horiz-adv-x="966" d="M-31 227q0 -51 20.5 -94t53.5 -73.5t71 -48t74 -17.5q109 0 192 58.5t148 146.5v-322l-24 -20q-55 -47 -104.5 -95.5t-85 -100.5t-56 -109.5t-20.5 -122.5q0 -29 12 -62t34.5 -60.5t53.5 -46t68 -18.5q35 0 65.5 19.5t54 48t38 64.5t14.5 67v414l20 20 q102 86 204.5 182.5t180.5 216.5q0 4 2 8.5t2 6.5q0 14 -14 24l2 -4q-6 6 -14 6q-6 0 -13.5 -2t-9.5 -12v4q-70 -111 -154 -193.5t-170 -158.5l-36 -33v365v2v327q0 10 -8.5 18.5t-18.5 8.5t-16.5 -8t-6.5 -19v-319l-6 -6q-70 -109 -149.5 -177.5t-184.5 -68.5 q-29 0 -58.5 13.5t-54 38t-40 58t-15.5 74.5v375q0 14 -8 20.5t-16 6.5q-27 0 -27 -27v-375zM158 793q0 -10 6 -17.5t20 -7.5h15q53 0 100 29.5t80 72.5q6 6 6 15q0 25 -27 24q-12 0 -20 -10q-27 -39 -60.5 -60.5t-76.5 -21.5h-17q-14 0 -20 -7t-6 -17zM291 -571 q0 102 55 186t146 162l36 37v-373q0 -25 -10 -51.5t-27.5 -48t-39.5 -36t-45 -14.5t-43.5 12.5t-37 33t-25.5 45t-9 47.5z" />
<glyph unicode="&#xfe;" horiz-adv-x="632" d="M29 606v-1241q0 -27 22 -27q27 0 27 27v828q72 -104 153 -152.5t187 -48.5q45 0 87 17.5t74.5 50t52 80.5t19.5 112q0 98 -58 167.5t-144.5 115t-186.5 67t-184 23.5v563q0 12 -8.5 19t-18.5 7q-8 0 -15 -7t-7 -19v-580v-2zM78 287v288q82 -4 174 -23.5t170 -58t129 -99 t51 -142.5q0 -51 -15.5 -90t-41 -65.5t-57 -40t-64.5 -13.5h-6q-106 0 -185 55.5t-155 188.5z" />
<glyph unicode="&#xff;" horiz-adv-x="966" d="M-31 227q0 -51 20.5 -94t53.5 -73.5t71 -48t74 -17.5q109 0 192 58.5t148 146.5v-322l-24 -20q-55 -47 -104.5 -95.5t-85 -100.5t-56 -109.5t-20.5 -122.5q0 -29 12 -62t34.5 -60.5t53.5 -46t68 -18.5q35 0 65.5 19.5t54 48t38 64.5t14.5 67v414l20 20 q102 86 204.5 182.5t180.5 216.5q0 4 2 8.5t2 6.5q0 14 -14 24l2 -4q-6 6 -14 6q-6 0 -13.5 -2t-9.5 -12v4q-70 -111 -154 -193.5t-170 -158.5l-36 -33v365v2v327q0 10 -8.5 18.5t-18.5 8.5t-16.5 -8t-6.5 -19v-319l-6 -6q-70 -109 -149.5 -177.5t-184.5 -68.5 q-29 0 -58.5 13.5t-54 38t-40 58t-15.5 74.5v375q0 14 -8 20.5t-16 6.5q-27 0 -27 -27v-375zM106 821q0 23 15.5 37t38.5 14t38 -14t15 -37t-15.5 -36t-37.5 -13q-23 0 -38.5 13t-15.5 36zM291 -571q0 102 55 186t146 162l36 37v-373q0 -25 -10 -51.5t-27.5 -48t-39.5 -36 t-45 -14.5t-43.5 12.5t-37 33t-25.5 45t-9 47.5zM317 817q0 23 15.5 37t38.5 14t38 -14t15 -37t-15.5 -36t-37.5 -13q-23 0 -38.5 13t-15.5 36z" />
<glyph unicode="&#x152;" horiz-adv-x="2439" d="M12 688q2 -143 52.5 -269t136.5 -219.5t201.5 -147.5t248.5 -54h6q94 0 182.5 29.5t162 82t132 126t95.5 161.5q23 -92 96.5 -169.5t175 -133t215 -86.5t215.5 -31q76 0 154 23t148.5 60.5t130 89t98.5 110.5q0 4 1 8t1 6q0 16 -15 25q-2 2 -10 2q-20 0 -24 -14 q-37 -53 -91.5 -100.5t-119 -83t-135 -56t-138.5 -20.5q-100 0 -216 33.5t-214 93t-163.5 139.5t-65.5 172q0 72 40 149.5t111 135.5q135 -113 308 -113q33 0 73.5 9t75.5 28.5t59.5 49.5t24.5 69t-25.5 66.5t-62.5 45t-77 24.5t-68 7q-72 0 -153 -31t-153 -88 q-57 53 -79.5 103.5t-22.5 97.5q0 63 45 120.5t113.5 99.5t150.5 66.5t154 24.5q80 0 139.5 -10t103.5 -27.5t76.5 -39t61.5 -46.5q10 -10 14 -10t8 2t9 4q10 14 10 25q0 4 -10 14q-31 29 -68 54.5t-85 44t-111.5 29.5t-147.5 11q-59 -2 -127 -17t-133 -46 q-92 -47 -188.5 -101.5t-186.5 -95.5q-78 111 -189.5 179.5t-246.5 80.5q-2 4 -4 4h-2h-2q-14 0 -26.5 1t-27.5 1h-6q-131 0 -246.5 -55t-201.5 -149.5t-136.5 -220t-50.5 -267.5v-6zM66 688v6q0 131 46 248t125.5 204t185 138t224.5 53h19q-14 -27 -19.5 -50t-5.5 -46 q0 -27 8 -48.5t23 -43.5q31 -43 83 -69.5t122 -37.5h-5q10 -4 19 -4h20t17.5 -1t17.5 -1h8q41 0 85 5.5t91 17.5q47 -78 76 -169t33 -194v-6q0 -133 -46 -249.5t-126 -203.5t-185.5 -138.5t-224.5 -51.5h-6q-121 0 -227.5 50t-186 137.5t-125.5 204t-46 249.5zM694 1243 q0 18 5.5 41t19.5 47q115 -16 212 -74.5t167 -150.5q-72 -18 -140 -19q-20 0 -39.5 2.5t-35.5 4.5q-121 18 -160 73q-29 37 -29 76zM1180 1077q66 23 125 58q-33 -59 -33 -117q2 -66 31.5 -126.5t80.5 -107.5q-57 -57 -98 -118q0 6 1 12t1 12v6q-2 106 -29.5 200.5 t-78.5 180.5zM1466 780q76 59 142.5 83t122.5 24q29 0 61.5 -6.5t60 -18.5t45 -29.5t17.5 -39.5q0 -23 -17.5 -41.5t-45 -32.5t-60 -22.5t-61.5 -8.5q-55 0 -117 17.5t-148 74.5z" />
<glyph unicode="&#x153;" horiz-adv-x="1183" d="M-31 295q0 -66 25.5 -121t70 -97t102.5 -65.5t126 -23.5q96 0 173 45t118 121q12 -33 30.5 -62t48 -51.5t71.5 -35.5t97 -13q78 0 137.5 26.5t103.5 68.5t76 91t56 96q2 4 2 13q0 14 -14 22h-8q-14 0 -25 -10q-25 -45 -53.5 -91t-67.5 -83t-90 -60.5t-117 -23.5 q-86 0 -132 32.5t-66 82.5q16 -4 33 -4h34q63 0 123 26.5t109 89.5l1 1t1 3q45 61 45 140q0 45 -14 80q-8 49 -45 82.5t-82 37.5h-56q-66 -12 -115 -67.5t-75 -126.5q-37 84 -117 136t-182 52q-68 0 -126 -24.5t-102.5 -66.5t-70 -98.5t-25.5 -121.5zM18 295q0 53 21.5 100 t58.5 82t87.5 55.5t107.5 20.5q20 0 38.5 -2t37.5 -10q-29 -23 -39.5 -54.5t-10.5 -64.5t17.5 -66.5t48.5 -64.5t71 -58.5t83 -48.5q-33 -63 -98.5 -104t-147.5 -41q-57 0 -107.5 20.5t-87.5 55.5t-58.5 81t-21.5 99zM373 422q0 29 11 55.5t42 42.5q57 -29 95 -81t46 -115 q-2 -12 -3 -24.5t-1 -25.5q0 -14 2 -20q-4 -17 -6 -23q-84 35 -135 90.5t-51 100.5zM614 246l2 76l2 6q6 43 23.5 85t43.5 74.5t59.5 53t70.5 20.5q61 0 85 -49t24 -113q0 -41 -18.5 -83t-65.5 -70q-66 -43 -144 -43q-18 0 -37.5 1t-40.5 5q-2 10 -3 18.5t-1 18.5z" />
<glyph unicode="&#x178;" horiz-adv-x="1515" d="M10 1079q0 -27 23 -26q10 0 18 7t8 17q2 31 15.5 74t39 81t61.5 65.5t83 27.5q23 0 43.5 -15.5t36.5 -40t25.5 -53t9.5 -55.5v-622q0 -47 14 -98.5t46 -94.5t81 -70.5t119 -27.5q61 2 119.5 36.5t110.5 91t97.5 128t79.5 145.5l-6 -737l-65 -43q-72 -45 -135.5 -90 t-110.5 -94.5t-76 -104.5t-29 -121v-6q0 -41 17.5 -87t48.5 -84t71 -62.5t83 -24.5q70 0 116.5 45t75.5 111.5t41 140.5t12 133v252l68 41q109 68 212 151t171 191h-2q6 6 6 14t-3 11.5t-7 7.5t-9.5 5t-7.5 1q-8 0 -14 -6l-12 -12q-61 -98 -161.5 -177t-211.5 -145l-25 -18 l9 1405q0 10 -8.5 18t-18.5 8t-16 -8t-6 -18l-7 -562q-33 -82 -76.5 -168t-97 -155.5t-113 -114.5t-120.5 -45h-6q-53 0 -92 21.5t-64 55.5t-37 77t-12 84v622q0 31 -12.5 68t-34 69.5t-51 54t-66.5 21.5q-61 0 -108.5 -33.5t-78 -81t-46 -97.5t-15.5 -83zM524 1518 q0 23 15.5 37t38.5 14t38 -14.5t15 -36.5q0 -23 -15.5 -36.5t-37.5 -13.5q-23 0 -38.5 13.5t-15.5 36.5zM668 -547q0 55 27.5 104.5t73.5 95.5t107.5 89t131.5 86l26 16v-219q-2 -59 -13 -125.5t-33.5 -123t-59.5 -94.5t-90 -38q-31 0 -62 19.5t-55.5 50.5t-38.5 67.5 t-14 71.5zM735 1513q0 23 15.5 37.5t37.5 14.5q23 0 38.5 -14.5t15.5 -37.5t-15.5 -36t-38.5 -13t-38 13t-15 36z" />
<glyph unicode="&#x2c6;" horiz-adv-x="1126" d="M313 1430q0 -27 25 -27q10 0 16 6l135 84l125 -92q6 -6 17 -6q12 0 19 9t7 19q0 14 -10 23l-133 98q-6 6 -16 6q-4 0 -6.5 -1t-4.5 -1h-2q-12 0 -16 -4l-143 -90q-12 -12 -13 -24z" />
<glyph unicode="&#x2dc;" horiz-adv-x="1126" d="M274 1444q0 -23 8.5 -40.5t24.5 -17.5q10 0 18.5 6.5t8.5 22.5v12q0 8 -4 17q4 25 23.5 36t41.5 11q25 0 47.5 -14.5t26.5 -40.5q16 -29 42 -40.5t54 -11.5q49 0 91 31t42 82q0 18 -6 36.5t-24 18.5q-10 0 -19.5 -7t-9.5 -21v-2q2 -6 4 -11.5t2 -9.5q0 -29 -24.5 -46 t-53.5 -17q-18 0 -34.5 8t-22.5 31q-16 35 -48 52t-67 17q-47 0 -84 -26.5t-37 -75.5z" />
<glyph unicode="&#x2000;" horiz-adv-x="798" />
<glyph unicode="&#x2001;" horiz-adv-x="1597" />
<glyph unicode="&#x2002;" horiz-adv-x="798" />
<glyph unicode="&#x2003;" horiz-adv-x="1597" />
<glyph unicode="&#x2004;" horiz-adv-x="532" />
<glyph unicode="&#x2005;" horiz-adv-x="399" />
<glyph unicode="&#x2006;" horiz-adv-x="266" />
<glyph unicode="&#x2007;" horiz-adv-x="266" />
<glyph unicode="&#x2008;" horiz-adv-x="199" />
<glyph unicode="&#x2009;" horiz-adv-x="319" />
<glyph unicode="&#x200a;" horiz-adv-x="88" />
<glyph unicode="&#x2010;" horiz-adv-x="851" d="M127 637q0 -8 7.5 -15.5t19.5 -7.5h542q12 0 19.5 7.5t7.5 15.5q0 10 -7 18.5t-20 8.5h-542q-12 0 -19.5 -8.5t-7.5 -18.5z" />
<glyph unicode="&#x2011;" horiz-adv-x="851" d="M127 637q0 -8 7.5 -15.5t19.5 -7.5h542q12 0 19.5 7.5t7.5 15.5q0 10 -7 18.5t-20 8.5h-542q-12 0 -19.5 -8.5t-7.5 -18.5z" />
<glyph unicode="&#x2012;" horiz-adv-x="851" d="M127 637q0 -8 7.5 -15.5t19.5 -7.5h542q12 0 19.5 7.5t7.5 15.5q0 10 -7 18.5t-20 8.5h-542q-12 0 -19.5 -8.5t-7.5 -18.5z" />
<glyph unicode="&#x2013;" horiz-adv-x="1279" d="M127 637q0 -8 13 -15.5t33 -7.5h932q20 0 33 7.5t13 15.5q0 10 -12 18.5t-34 8.5h-932q-20 0 -33 -8.5t-13 -18.5z" />
<glyph unicode="&#x2014;" horiz-adv-x="2303" d="M127 637q0 -8 26 -15.5t67 -7.5h1862q41 0 67 7.5t26 15.5q0 10 -24 18.5t-69 8.5h-1862q-41 0 -67 -8.5t-26 -18.5z" />
<glyph unicode="&#x2018;" horiz-adv-x="282" d="M68 1257v9q2 16 14 40.5t33 57.5q39 68 69 68h6q27 -6 27 -29v-8q-10 -14 -24.5 -34t-30.5 -44l2 -6q51 -27 51 -68q0 -4 -1 -7t-1 -7q-12 -53 -59 -53q-4 0 -7.5 1t-7.5 1q-27 4 -49 28.5t-22 50.5z" />
<glyph unicode="&#x2019;" horiz-adv-x="329" d="M113 1194q0 6 2 10q10 14 25.5 33.5t31.5 42.5l-2 6q-49 27 -49 68q0 4 1 7t1 7q8 53 53 53q12 0 19 -2h2q25 -4 47 -28.5t22 -51.5v-10q-6 -31 -49 -98q-47 -66 -74 -66h-2q-29 6 -28 29z" />
<glyph unicode="&#x201a;" horiz-adv-x="454" d="M113 -96q0 6 2 10q10 14 25.5 33.5t31.5 42.5l-2 6q-49 27 -49 67q0 4 1 7.5t1 7.5q8 53 53 53q12 0 19 -2h2q25 -4 47 -28.5t22 -51.5v-10q-6 -31 -49 -98q-47 -66 -74 -66h-2q-29 6 -28 29z" />
<glyph unicode="&#x201c;" horiz-adv-x="624" d="M68 1257v9q2 16 14 40.5t33 57.5q39 68 69 68h6q27 -6 27 -29v-8q-10 -14 -24.5 -34t-30.5 -44l2 -6q51 -27 51 -68q0 -4 -1 -7t-1 -7q-12 -53 -59 -53q-4 0 -7.5 1t-7.5 1q-27 4 -49 28.5t-22 50.5zM330 1257v9q2 16 14 40.5t33 57.5q39 68 69 68h7q29 -6 28 -29v-8 q-10 -14 -25.5 -34t-31.5 -44l2 -6q51 -27 51 -68q0 -4 -1 -7t-1 -7q-10 -53 -57 -53q-4 0 -7 1t-8 1q-29 4 -51 28.5t-22 50.5z" />
<glyph unicode="&#x201d;" horiz-adv-x="567" d="M113 1194q0 6 2 10q10 14 25.5 33.5t31.5 42.5l-2 6q-49 27 -49 68q0 4 1 7t1 7q8 53 53 53q12 0 19 -2h2q25 -4 47 -28.5t22 -51.5v-10q-6 -31 -49 -98q-47 -66 -74 -66h-2q-29 6 -28 29zM332 1196v8q10 14 25.5 33.5t31.5 42.5l-2 6q-49 27 -49 68q0 4 1 7t1 7 q8 53 55 53q10 0 17 -2h2q25 -4 47 -28.5t22 -51.5v-10q-6 -28 -47 -98q-47 -66 -76 -66q-29 10 -28 31z" />
<glyph unicode="&#x201e;" horiz-adv-x="567" d="M113 -90q0 6 2 10q10 14 25.5 33.5t31.5 42.5l-2 6q-49 27 -49 68q0 4 1 7t1 7q8 53 53 53q12 0 19 -2h2q25 -4 47 -28.5t22 -51.5v-10q-6 -31 -49 -98q-47 -66 -74 -66h-2q-29 6 -28 29zM332 -80q10 14 25.5 33.5t31.5 42.5l-2 6q-49 27 -49 68q0 4 1 7t1 7q8 53 55 53 q10 0 17 -2h2q25 -4 47 -28.5t22 -51.5v-10q-6 -28 -47 -98q-47 -66 -76 -66q-29 10 -28 31v8z" />
<glyph unicode="&#x2026;" horiz-adv-x="1034" d="M82 57q0 29 19.5 47.5t48.5 18.5t48 -18.5t19 -47.5t-19.5 -46t-47.5 -17q-29 0 -48.5 17t-19.5 46zM463 61q0 29 19.5 47.5t47.5 18.5q29 0 48.5 -18.5t19.5 -47.5t-19.5 -46t-48.5 -17t-48 17t-19 46zM844 66q0 29 19.5 47t47.5 18q29 0 48.5 -18.5t19.5 -46.5 q0 -29 -19.5 -46.5t-48.5 -17.5t-48 17.5t-19 46.5z" />
<glyph unicode="&#x202f;" horiz-adv-x="319" />
<glyph unicode="&#x2039;" horiz-adv-x="505" d="M37 635q0 -9 10 -19l346 -266q16 -10 29 -10q14 0 25.5 7t11.5 18q0 10 -8 18l-332 254l291 276q6 4 6 15q0 10 -11.5 18t-25.5 8q-18 0 -33 -12l-303 -289q-6 -4 -6 -14v-4z" />
<glyph unicode="&#x203a;" horiz-adv-x="505" d="M37 365q0 10 8 18l332 254l-291 276q-6 4 -6 15q0 10 11 18t26 8q16 0 33 -12l303 -289q6 -4 6 -14v-4q0 -9 -10 -19l-347 -266q-16 -10 -28 -10q-14 0 -25.5 7t-11.5 18z" />
<glyph unicode="&#x205f;" horiz-adv-x="399" />
<glyph unicode="&#x25fc;" horiz-adv-x="634" d="M0 0v635h635v-635h-635z" />
</font>
</defs>
</svg>
